Подписывайся на наш канал в Telegram https://t.me/torrentok и получи доступ к торрентам без ограничений!
. bolt.mmix.club
Авторские права
con...@...Показать
Вход на сайт
Логин:
Пароль:
 
Навигация по сайту
Популярные статьи

Торрент трекер | Скачать торрент | Скачать через Торрент | Скачать торрент бесплатно | Скачать торрент без регистрации Фильмы торрент скачать Андалузское суеверие / Superstition andalouse (1912) DVDRip торрент скачать бесплатно

Андалузское суеверие / Superstition andalouse (1912) DVDRip торрент скачать бесплатно

Фильмы торрент скачать
Андалузское суеверие / Superstition andalouse (1912) DVDRipПроизводство: Франция, Испания, Pathé Frères, Ibérico Film
Жанр: Мистика, хоррор, короткометражный, немое кино
Режиссер: Сегундо де Шомон

Актеры
Неизвестны

Описание

Прекрасная Хуанита прогоняет цыганку, пристававшую к любимому Педро. Это плохая примета. И вот уж видится Хуаните, что цыгане похищают любимого и увозят его в таинственный и страшный дом, полный уродливых существ и пугающих призраков


Релиз от: Потейка
Продолжительность: 00: 10: 20
Качество видео: DVDRip
Язык озвучки: Немой
Субтитры: Английские интертитры, русские отдельным файлом
Видео: Xvid, 640x480, ~1899 Kbps
Аудио: MP3, 2 ch, 128 Kbps
Общее
Полное имя : D: 1UPRetroAndalouse_19121912 Souperstition Andalouse.avi
Формат : AVI
Формат/Информация : Audio Video Interleave
Размер файла : 150 Мбайт
Продолжительность : 10 м. 20 с.
Режим общего битрейта : Переменный
Общий поток : 2 032 Кбит/сек
Программа кодирования : VirtualDubMod 1.5.10.2 (build 2540/release)
Библиотека кодирования : VirtualDub build 32842/release
Видео
Идентификатор : 0
Формат : MPEG-4 Visual
Профиль формата : Advanced Simple@L5
Настройки формата : BVOP2
Параметр BVOP формата : 2
Параметр QPel формата : Нет
Параметр GMC формата : Без точки перехода
Параметр матрицы формата : Default (H.263)
Режим смешивания : Сжатый битовый поток
Идентификатор кодека : XVID
Идентификатор кодека/Подсказка : XviD
Продолжительность : 10 м. 20 с.
Битрейт : 1 899 Кбит/сек
Ширина : 640 пикселей
Высота : 480 пикселей
Соотношение сторон : 4: 3
Частота кадров : 25, 000 кадров/сек
Цветовое пространство : YUV
Субдискретизация насыщенности : 4: 2: 0
Битовая глубина : 8 бит
Тип развёртки : Прогрессивная
Метод сжатия : С потерями
Бит/(Пиксели*Кадры) : 0.247
Размер потока : 140 Мбайт (93%)
Библиотека кодирования : XviD 64
Аудио
Идентификатор : 1
Формат : MPEG Audio
Версия формата : Version 1
Профиль формата : Layer 3
Настройки формата : Joint stereo/MS Stereo
Идентификатор кодека : 55
Идентификатор кодека/Подсказка : MP3
Продолжительность : 10 м. 20 с.
Вид битрейта : Переменный
Битрейт : 128 Кбит/сек
Каналы : 2 канала
Частота : 48, 0 КГц
Частота кадров : 41, 667 кадра/сек (1152 SPF)
Метод сжатия : С потерями
Размер потока : 9, 05 Мбайт (6%)
Выравнивание : Разделение по промежуткам
Продолжительность промежутка : 40 мс. (1, 00 видеокадр)
Время предзагрузки промежутка : 500 мс.
Библиотека кодирования : LAME3.90.
Настройки программы : -m j -V 4 -q 2 -lowpass 17.6 --abr 128

Скриншоты для ознакомления



Все одноименные релизы в Клубе
Время раздачи: С 8 до 22 мск (до появления первых 3-5 скачавших)
 
Уважаемый посетитель, Вы зашли на сайт как незарегистрированный пользователь. Мы рекомендуем Вам зарегистрироваться либо зайти на сайт под своим именем.

Другие новости по теме:



Информация
Посетители, находящиеся в группе Гости, не могут оставлять комментарии в данной новости.
Главная страница | Регистрация | Добавить новость | Новое на сайте Copyright © 2019. bolt.mmix.club All Rights Reserved