Подписывайся на наш канал в Telegram https://t.me/torrentok и получи доступ к торрентам без ограничений!
. bolt.mmix.club
Авторские права
con...@...Показать
Вход на сайт
Логин:
Пароль:
 
Навигация по сайту
Популярные статьи

Торрент трекер | Скачать торрент | Скачать через Торрент | Скачать торрент бесплатно | Скачать торрент без регистрации Фильмы торрент скачать Пираты Карибского моря: На странных берегах / Pirates of the Caribbean: On Stranger Tides (2011) WEB-DLRip [H.264 / 720p-LQ] торрент скачать бесплатно

Пираты Карибского моря: На странных берегах / Pirates of the Caribbean: On Stranger Tides (2011) WEB-DLRip [H.264 / 720p-LQ] торрент скачать бесплатно

Фильмы торрент скачать
Пираты Карибского моря: На странных берегах / Pirates of the Caribbean: On Stranger Tides (2011) WEB-DLRip [H.264 / 720p-LQ]Производство: США, Великобритания/Jerry Bruckheimer Films, Walt Disney Pictures
Жанр: Фэнтези, боевик, комедия, приключения
Режиссер: Роб Маршалл

Актеры
Джонни Депп, Пенелопа Крус, Джеффри Раш, Иэн МакШейн, Кевин МакНэлли, Стивен Грэм, Сэм Клафлин, Астрид Берже-Фрисби, Кит Ричардс, Ричард Гриффитс

Описание

В новой истории о поисках истины, предательстве, вечной молодости и смертельной опасности капитану Джеку Воробью предстоит столкнуться с женщиной из своего прошлого Анжеликой. До самого конца не будет понятно, связывает ли их настоящая любовь, или же Анжелика искусно притворяется, чтобы вместе с Джеком добраться до таинственного источника вечной молодости.
Она силой принуждает капитана Джека Воробья взойти на корабль Месть Королевы Анны, которым управляет коварный злодей Черная Борода. Наш герой оказывается в ситуации, когда он не знает, чего ему бояться больше — ужасного злодея или же свою давнюю подругу.


Возраст: 12+ (зрителям, достигшим 12 лет)
Рейтинг MPAA: PG-13 (детям до 13 лет просмотр нежелателен)
Релиз от: LORDKILL
Продолжительность: 02: 16: 23
Качество видео: WEB-DLRip
Перевод: Дублированный
Субтитры: Русские (forced, full), английские
Видео: AVC/H.264, 1280x720, ~2955 kbps
Аудио 1: AC3, 6 ch, 640 kbps - Русский, дубляж
Аудио 2: AC3, 6 ch, 640 kbps - Английский
General
Unique ID : 107372448350234680958569997619762290797 (0x50C72E6CD26172FE76D51856CBF7E06D)
Complete name : F: КИНОРУТОРПираты Карибского моря. На странных берегах (Open Matte).WEB-DLRip 720p.mkv
Format : Matroska
Format version : Version 4
File size : 4.04 GiB
Duration : 2 h 16 min
Overall bit rate : 4 238 kb/s
Movie name : Пираты Карибского моря: На странных берегах/Pirates of the Caribbean: On Stranger Tides (2011) (Open Matte) - #LORDKILL#
Encoded date : UTC 2020-10-25 13: 57: 38
Writing application : mkvmerge v32.0.0 (\'Astral Progressions\') 64-bit
Writing library : libebml v1.3.7 + libmatroska v1.5.0
Video
ID : 1
Format : AVC
Format/Info : Advanced Video Codec
Format profile : High@L4.1
Format settings : CABAC/9 Ref Frames
Format settings, CABAC : Yes
Format settings, Reference : 9 frames
Codec ID : V_MPEG4/ISO/AVC
Duration : 2 h 16 min
Bit rate : 2 955 kb/s
Width : 1 280 pixels
Height : 720 pixels
Display aspect ratio : 16: 9
Frame rate mode : Constant
Frame rate : 23.976 (24000/1001) FPS
Color space : YUV
Chroma subsampling : 4: 2: 0
Bit depth : 8 bits
Scan type : Progressive
Bits/(Pixel*Frame) : 0.134
Stream size : 2.82 GiB (70%)
Writing library : x264 core 159 r2991 1771b55
Encoding settings : cabac=1/ref=9/deblock=1: -2: -2/analyse=0x3: 0x113/me=umh/subme=10/psy=1/psy_rd=1.00: 0.20/mixed_ref=1/me_range=32/chroma_me=1/trellis=2/8x8dct=1/cqm=0/deadzone=21, 11/fast_pskip=0/chroma_qp_offset=-3/threads=12/lookahead_threads=2/sliced_threads=0/nr=0/decimate=1/interlaced=0/bluray_compat=0/constrained_intra=0/bframes=9/b_pyramid=2/b_adapt=2/b_bias=0/direct=1/weightb=1/open_gop=0/weightp=2/keyint=240/keyint_min=23/scenecut=40/intra_refresh=0/rc=crf/mbtree=0/crf=19.5/qcomp=0.60/qpmin=0/qpmax=69/qpstep=4/ip_ratio=1.40/pb_ratio=1.30/aq=1: 0.80
Default : Yes
Forced : No
Audio #1
ID : 2
Format : AC-3
Format/Info : Audio Coding 3
Commercial name : Dolby Digital
Codec ID : A_AC3
Duration : 2 h 16 min
Bit rate mode : Constant
Bit rate : 640 kb/s
Channel(s) : 6 channels
Channel layout : L R C LFE Ls Rs
Sampling rate : 48.0 kHz
Frame rate : 31.250 FPS (1536 SPF)
Compression mode : Lossy
Stream size : 625 MiB (15%)
Title : Дубляж
Language : Russian
Service kind : Complete Main
Default : No
Forced : No
Audio #2
ID : 3
Format : AC-3
Format/Info : Audio Coding 3
Commercial name : Dolby Digital
Codec ID : A_AC3
Duration : 2 h 16 min
Bit rate mode : Constant
Bit rate : 640 kb/s
Channel(s) : 6 channels
Channel layout : L R C LFE Ls Rs
Sampling rate : 48.0 kHz
Frame rate : 31.250 FPS (1536 SPF)
Compression mode : Lossy
Stream size : 625 MiB (15%)
Language : English
Service kind : Complete Main
Default : Yes
Forced : No
Text #1
ID : 4
Format : UTF-8
Codec ID : S_TEXT/UTF8
Codec ID/Info : UTF-8 Plain Text
Duration : 2 h 6 min
Bit rate : 0 b/s
Count of elements : 7
Stream size : 316 Bytes (0%)
Title : Forced
Language : Russian
Default : Yes
Forced : No
Text #2
ID : 5
Format : UTF-8
Codec ID : S_TEXT/UTF8
Codec ID/Info : UTF-8 Plain Text
Duration : 2 h 6 min
Bit rate : 79 b/s
Count of elements : 1340
Stream size : 73.5 KiB (0%)
Title : Full
Language : Russian
Default : No
Forced : No
Text #3
ID : 6
Format : UTF-8
Codec ID : S_TEXT/UTF8
Codec ID/Info : UTF-8 Plain Text
Duration : 2 h 5 min
Bit rate : 46 b/s
Count of elements : 1329
Stream size : 43.0 KiB (0%)
Language : English
Default : No
Forced : No
Menu
00: 00: 00.000 : en: An Unorthodox Catch
00: 03: 45.450 : en: On Trial
00: 08: 58.050 : en: Royal Visit
00: 16: 07.350 : en: Escape
00: 18: 45.450 : en: The Captain\'s Daughter
00: 21: 26.600 : en: Stolen Identity
00: 30: 16.800 : en: The Queen Anne
00: 37: 08.050 : en: Mutiny Most Foul
00: 42: 16.650 : en: A Bad Man
00: 48: 31.300 : en: The Prophecy
00: 53: 37.800 : en: Thick As Thieves
00: 55: 54.250 : en: The Truth
00: 58: 04.149 : en: Whitecap Bay
01: 00: 58.770 : en: God Save Me
01: 08: 33.500 : en: A Proper Mermaid
01: 11: 52.600 : en: Through The Jungle
01: 13: 14.450 : en: Whatever Is Necessary
01: 14: 28.000 : en: A Sudden Urge To Jump
01: 23: 31.270 : en: No, You
01: 27: 00.899 : en: Jungle Pools
01: 30: 27.750 : en: Stirrings
01: 35: 55.000 : en: An Improvised Escape
01: 41: 09.200 : en: A Trade For The Compass
01: 43: 18.850 : en: A Dramatic Entrance
01: 45: 02.900 : en: Aqua De Vida
01: 49: 04.900 : en: One Last Fight
01: 57: 52.750 : en: Do Not Waste My Tear
02: 02: 32.650 : en: Choosing The Dog
02: 06: 02.750 : en: For The Pearl
02: 07: 38.050 : en: Credits
02: 15: 49.450 : en: Voodoo Doll
 
Уважаемый посетитель, Вы зашли на сайт как незарегистрированный пользователь. Мы рекомендуем Вам зарегистрироваться либо зайти на сайт под своим именем.

Другие новости по теме:

  • Пираты Карибского моря: Квадрология / Pirates of the Caribbean: Quadrilogy (2003,2006,2007,2011) BDRip [720p] скачать через торрент бесплатно
  • Пираты Карибского моря: Квадрология / Pirates of the Caribbean: Quadrilogy (2003-2011) HDRip [H.264] [MP4|960х400] скачать через торрент бесплатно
  • Пираты Карибского моря: Проклятие Черной жемчужины / Pirates of the Caribbean: The Curse of the Black Pearl (2003) BDRip [H.264 / 1080p-LQ]
  • Пираты Карибского моря: Сундук мертвеца / Pirates of the Caribbean: Dead Mans Chest (2006) BDRip [H.264 / 1080p-LQ]
  • Пираты Карибского моря: На краю Света / Pirates of the Caribbean: At Worlds End (2007) BDRip [H.264 / 1080p-LQ]
  • Пираты Карибского моря: На странных берегах / Pirates Of The Caribbean: On Stranger Tides (2011) HDRip [AVO]
  • Пираты Карибского моря: Проклятие Черной жемчужины / Pirates of the Caribbean: The Curse of the Black Pearl (2003) BDRip [H.265 / 1080p] [US Edition]
  • Пираты Карибского моря: На краю Света / Pirates of the Caribbean: At Worlds End (2007) BDRip [H.265 / 1080p-LQ]


  • Информация
    Посетители, находящиеся в группе Гости, не могут оставлять комментарии в данной новости.
    Главная страница | Регистрация | Добавить новость | Новое на сайте Copyright © 2019. bolt.mmix.club All Rights Reserved