Подписывайся на наш канал в Telegram https://t.me/torrentok и получи доступ к торрентам без ограничений!
. bolt.mmix.club
Авторские права
con...@...Показать
Вход на сайт
Логин:
Пароль:
 
Навигация по сайту
Популярные статьи

Торрент трекер | Скачать торрент | Скачать через Торрент | Скачать торрент бесплатно | Скачать торрент без регистрации Фильмы торрент скачать Чужие письма (1975) DVDRip [H.264] [PR] торрент скачать бесплатно

Чужие письма (1975) DVDRip [H.264] [PR] торрент скачать бесплатно

Фильмы торрент скачать
Чужие письма (1975) DVDRip [H.264] [PR]Производство: СССР/ Ленфильм
Жанр: Драма
Режиссер: Илья Авербах

Актеры
Ирина Купченко, Светлана Смирнова, Сергей Коваленков, Зинаида Шарко, Олег Янковский, Иван Бортник, Валентина Владимирова, Наталья Скворцова, Майя Булгакова, Зинаида Глущенко

Описание

Героиня фильма - добрая и интеллигентная молодая учительница математики, желая помочь своей ученице, поселяет ее у себя дома. Девочка на удивление быстро приживается в новом доме, начинает чувствовать себя там почти хозяйкой, и даже берется руководить личной жизнью своей наставницы, ее отношениями с людьми...


Возраст: 12+ (зрителям, достигшим 12 лет)
Продолжительность: 01: 28: 31
Качество видео: DVDRip
Субтитры: Отсутствуют
Видео: AVC/H.264, 720х534, ~1967 Kbps
Аудио: AC3, 2 ch, 192 kbps - Русский
Общее
Уникальный идентификатор : 201169756290128805116671810959669425486 (0x9757E2C0CD4C0982B74049DD5DBF754E)
Полное имя : D: Советские фильмыКупченко Ирина ПетровнаЧужие письма 1975Чужие письма 1975.mkv
Формат : Matroska
Версия формата : Version 4
Размер файла : 1, 36 Гбайт
Продолжительность : 1 ч. 28 м.
Общий поток : 2 202 Кбит/сек
Название фильма : Release for Topmost
Дата кодирования : UTC 2020-03-14 04: 22: 25
Программа кодирования : mkvmerge v6.2.0 (\'Promised Land\') built on Apr 28 2013 12: 22: 01
Библиотека кодирования : libebml v1.3.0 + libmatroska v1.4.0
Обложка : Yes
Attachments : cover_land.jpg
Видео
Идентификатор : 1
Формат : AVC
Формат/Информация : Advanced Video Codec
Профиль формата : High@L4.1
Настройки формата : CABAC/12 Ref Frames
Параметр CABAC формата : Да
Параметр RefFrames формата : 12 кадров
Идентификатор кодека : V_MPEG4/ISO/AVC
Продолжительность : 1 ч. 28 м.
Битрейт : 1 967 Кбит/сек
Ширина : 720 пикселей
Высота : 534 пикселя
Соотношение сторон : 4: 3
Режим частоты кадров : Постоянный
Частота кадров : 25, 000 кадров/сек
Цветовое пространство : YUV
Субдискретизация насыщенности : 4: 2: 0
Битовая глубина : 8 бит
Тип развёртки : Прогрессивная
Бит/(Пиксели*Кадры) : 0.205
Размер потока : 1, 22 Гбайт (89%)
Заголовок : Чужие письма 1975/Release for Topmost/
Язык : Russian
Default : Да
Forced : Нет
Аудио
Идентификатор : 2
Формат : AC-3
Формат/Информация : Audio Coding 3
Коммерческое название : Dolby Digital
Идентификатор кодека : A_AC3
Продолжительность : 1 ч. 28 м.
Вид битрейта : Постоянный
Битрейт : 192 Кбит/сек
Каналы : 2 канала
Channel layout : L R
Частота : 48, 0 КГц
Частота кадров : 31, 250 кадров/сек (1536 SPF)
Метод сжатия : С потерями
Задержка видео : 8 мс.
Размер потока : 122 Мбайт (9%)
Язык : Russian
Service kind : Complete Main
Default : Да
Forced : Нет

Скриншоты для ознакомления



Все одноименные релизы в Клубе
Время раздачи: 24/7 до 5 скачавших (до появления первых 3-5 скачавших)
 
Уважаемый посетитель, Вы зашли на сайт как незарегистрированный пользователь. Мы рекомендуем Вам зарегистрироваться либо зайти на сайт под своим именем.

Другие новости по теме:

  • Чужие письма (1975) DVDRip скачать через торрент бесплатно


  • Информация
    Посетители, находящиеся в группе Гости, не могут оставлять комментарии в данной новости.
    Главная страница | Регистрация | Добавить новость | Новое на сайте Copyright © 2019. bolt.mmix.club All Rights Reserved