Подписывайся на наш канал в Telegram https://t.me/torrentok и получи доступ к торрентам без ограничений!
. bolt.mmix.club
Авторские права
con...@...Показать
Вход на сайт
Логин:
Пароль:
 
Навигация по сайту
Популярные статьи

Торрент трекер | Скачать торрент | Скачать через Торрент | Скачать торрент бесплатно | Скачать торрент без регистрации Фильмы торрент скачать Пара на праздники / Holidate (2020) WEB-DLRip торрент скачать бесплатно

Пара на праздники / Holidate (2020) WEB-DLRip торрент скачать бесплатно

Фильмы торрент скачать
Пара на праздники / Holidate (2020) WEB-DLRipПроизводство: США/NetFlix, Wonderland Sound and Vision
Жанр: комедия, мелодрама
Режиссер: Джон Уайтселл

Актеры
Эмма Робертс, Кристин Ченоуэт, Люк Брейси, Фрэнсис Фишер, Джессика Кэпшоу, Микаела Хувер, Джейк Мэнли, Эндрю Бэчелор, Маниш Дайал, Алекс Моффат

Описание

Они не знакомы, но устали проводить отпуск одиночестве. Тогда эти двое решают поддерживать платонические отношения целый год. Только сердцу не прикажешь.


Дата мировой премьеры: 28 октября 2020
Продолжительность: 01: 44: 44
Качество видео: WEB-DLRip
Перевод: Дублированный (Пифагор)
Субтитры: Русские (Forced) - отдельно
Видео: Xvid, 704x352, ~1451 Kbps
Аудио: AC3, 6 ch, 384 Kbps
eneral
Complete name : D: Para.Na.Prazdniki.2020.D.NF.WEB-DLRip.1.46Gb_ExKinoRay_by_Twi7terPara.Na.Prazdniki.2020.D.NF.WEB-DLRip.1.46Gb_ExKinoRay_by_Twi7ter.avi
Format : AVI
Format/Info : Audio Video Interleave
File size : 1.40 GiB
Duration : 1 h 44 min
Overall bit rate : 1 919 kb/s
Movie name : Para.Na.Prazdniki.2020.D.WEB-DLRip.1.46Gb
Director : Twi7ter
Genre : Comedy/Romance
Original source form/Name : Movie
IsTruncated : Yes
Video
ID : 0
Format : MPEG-4 Visual
Format profile : Advanced Simple@L5
Format settings : BVOP2/Custom Matrix
Format settings, BVOP : 2
Format settings, QPel : No
Format settings, GMC : No warppoints
Format settings, Matrix : Custom
Codec ID : XVID
Codec ID/Hint : XviD
Duration : 1 h 44 min
Bit rate : 1 451 kb/s
Width : 704 pixels
Height : 352 pixels
Display aspect ratio : 2.000
Frame rate : 24.000 FPS
Color space : YUV
Chroma subsampling : 4: 2: 0
Bit depth : 8 bits
Scan type : Progressive
Compression mode : Lossy
Bits/(Pixel*Frame) : 0.244
Stream size : 1.06 GiB (76%)
Writing library : XviD 73
Audio
ID : 1
Format : AC-3
Format/Info : Audio Coding 3
Commercial name : Dolby Digital
Codec ID : 2000
Duration : 1 h 44 min
Bit rate mode : Constant
Bit rate : 384 kb/s
Channel(s) : 6 channels
Channel layout : L R C LFE Ls Rs
Sampling rate : 48.0 kHz
Frame rate : 31.250 FPS (1536 SPF)
Bit depth : 16 bits
Compression mode : Lossy
Stream size : 288 MiB (20%)
Alignment : Aligned on interleaves
Service kind : Complete Main

Скриншоты для ознакомления



Все одноименные релизы в Клубе
Время раздачи: 24/7 (круглосуточно) (до появления первых 3-5 скачавших)
 
Уважаемый посетитель, Вы зашли на сайт как незарегистрированный пользователь. Мы рекомендуем Вам зарегистрироваться либо зайти на сайт под своим именем.

Другие новости по теме:

  • Пара на праздники / Holidate (2020) WEB-DL [H.264 / 1080p-LQ]
  • Пара на праздники / Holidate (2020) WEB-DL [H.264 / 720p-LQ]
  • Пара на праздники / Holidate (2020) WEB-DLRip [H.264]


  • Информация
    Посетители, находящиеся в группе Гости, не могут оставлять комментарии в данной новости.
    Главная страница | Регистрация | Добавить новость | Новое на сайте Copyright © 2019. bolt.mmix.club All Rights Reserved