Подписывайся на наш канал в Telegram https://t.me/torrentok и получи доступ к торрентам без ограничений!
. bolt.mmix.club
Авторские права
con...@...Показать
Вход на сайт
Логин:
Пароль:
 
Навигация по сайту
Популярные статьи

Торрент трекер | Скачать торрент | Скачать через Торрент | Скачать торрент бесплатно | Скачать торрент без регистрации Фильмы торрент скачать Сухая вода / Auga seca (2020) WEB-DLRip [H.264 / 1080p-LQ] (сезон 1, серии 1-6 из 6) ViruseProject [AD] торрент скачать бесплатно

Сухая вода / Auga seca (2020) WEB-DLRip [H.264 / 1080p-LQ] (сезон 1, серии 1-6 из 6) ViruseProject [AD] торрент скачать бесплатно

Фильмы торрент скачать
Сухая вода / Auga seca (2020) WEB-DLRip [H.264 / 1080p-LQ] (сезон 1, серии 1-6 из 6) ViruseProject [AD]Производство: Испания, Португалия/Portocabo, SPI
Жанр: драма
Режиссер: Toño López

Актеры
Виктория Герра, Монти Кастиньейрас, Серхио Пасос, Эва Фернандес, Сантьяго Ромэй, Cris Iglesias, Адриану Луш, Igor Regalla, Жоана Сантуш, Тачо Гонсалес и д.р.

Описание

Субботним днём Пауло и Тереза Дуартэ обсуждают грядущую поездку в Лондон и строят радостные планы, а уже в воскресенье утром Пауло находят мёртвым в порту, где он работал, и объявляют его смерть самоубийством. Но Тереза не может поверить, что её брат, который недавно переехал в новую квартиру и совсем не выглядел ни подавленным, ни измученным, покончил с собой. А если полицейские не собираются прислушаться к недоумевающим родственникам, придётся взять расследование в свои руки. И вполне может выясниться, что тайна смерти Пауло скрывает намного больше тайн, чем казалось сначала.


Релиз от: ViruseProject
Продолжительность: ~00: 50: 00 серия
Качество видео: WEB-DLRip 1080p
Перевод: Двуголосый закадровый (ViruseProject)
Субтитры: Русские
Реклама: Присутствуют видео, аудио вставки рекламы
Видео: AVC/H.264, 1920x1080 (16: 9), ~2971 Kbps
Аудио #1: AC3, 2 ch, 192 Kbps - русский
Аудио #2: AAC, 2 ch, 192 Kbps - галисийский
Общее
Уникальный идентификатор : 202833295501074062321198688389344488619 (0x989845919127B71F94C42A36B5036CAB)
Полное имя : F: ОЗВУЧКА888-ЗАЛИВ-888Auga.Seca.S01.ViruseProjectAuga.Seca.S01.1080p.ViruseProjectAuga.Seca.S01E01.1080p.WEB-DLRip.ViruseProject.mkv
Формат : Matroska
Версия формата : Version 4
Размер файла : 1, 19 Гбайт
Продолжительность : 50 м. 38 с.
Общий поток : 3 355 Кбит/сек
Дата кодирования : UTC 2020-10-27 13: 50: 57
Программа кодирования : mkvmerge v8.3.0 (\'Over the Horizon\') 64bit
Библиотека кодирования : libebml v1.3.1 + libmatroska v1.4.2
Видео
Идентификатор : 1
Формат : AVC
Формат/Информация : Advanced Video Codec
Профиль формата : High@L4.2
Настройки формата : CABAC/4 Ref Frames
Параметр CABAC формата : Да
Параметр RefFrames формата : 4 кадра
Идентификатор кодека : V_MPEG4/ISO/AVC
Продолжительность : 50 м. 38 с.
Битрейт : 2 971 Кбит/сек
Ширина : 1 920 пикселей
Высота : 1 080 пикселей
Соотношение сторон : 16: 9
Режим частоты кадров : Постоянный
Частота кадров : 25, 000 кадров/сек
Цветовое пространство : YUV
Субдискретизация насыщенности : 4: 2: 0
Битовая глубина : 8 бит
Тип развёртки : Прогрессивная
Бит/(Пиксели*Кадры) : 0.057
Размер потока : 1, 05 Гбайт (89%)
Язык : English
Default : Да
Forced : Нет
Цветовой диапазон : Limited
Основные цвета : BT.709
Характеристики трансфера : BT.709
Коэффициенты матрицы : BT.709
Аудио #1
Идентификатор : 2
Формат : AC-3
Формат/Информация : Audio Coding 3
Коммерческое название : Dolby Digital
Идентификатор кодека : A_AC3
Продолжительность : 50 м. 38 с.
Вид битрейта : Постоянный
Битрейт : 192 Кбит/сек
Каналы : 2 канала
Channel layout : L R
Частота : 48, 0 КГц
Частота кадров : 31, 250 кадров/сек (1536 SPF)
Метод сжатия : С потерями
Размер потока : 69, 5 Мбайт (6%)
Заголовок : ViruseProject
Язык : Russian
Service kind : Complete Main
Default : Да
Forced : Нет
Аудио #2
Идентификатор : 3
Формат : AAC LC
Формат/Информация : Advanced Audio Codec Low Complexity
Идентификатор кодека : A_AAC-2
Продолжительность : 50 м. 38 с.
Битрейт : 192 Кбит/сек
Каналы : 2 канала
Channel layout : L R
Частота : 48, 0 КГц
Частота кадров : 46, 875 кадров/сек (1024 SPF)
Метод сжатия : С потерями
Размер потока : 68, 6 Мбайт (6%)
Язык : Galician
Default : Нет
Forced : Нет
Текст
Идентификатор : 4
Формат : UTF-8
Идентификатор кодека : S_TEXT/UTF8
Идентификатор кодека/Информация : UTF-8 Plain Text
Продолжительность : 49 м. 26 с.
Битрейт : 98 бит/сек
Count of elements : 591
Размер потока : 35, 8 Кбайт (0%)
Заголовок : ViruseProject
Язык : Russian
Default : Нет
Forced : Нет

Скриншоты для ознакомления



Все одноименные релизы в Клубе
Время раздачи: с 10: 00 до 24: 00 (до появления первых 3-5 скачавших)
 
Уважаемый посетитель, Вы зашли на сайт как незарегистрированный пользователь. Мы рекомендуем Вам зарегистрироваться либо зайти на сайт под своим именем.

Другие новости по теме:

  • Сухая вода / Auga seca (2020) WEB-DLRip (сезон 1, серии 1-6 из 6) ViruseProject [AD]


  • Информация
    Посетители, находящиеся в группе Гости, не могут оставлять комментарии в данной новости.
    Главная страница | Регистрация | Добавить новость | Новое на сайте Copyright © 2019. bolt.mmix.club All Rights Reserved