Подписывайся на наш канал в Telegram https://t.me/torrentok и получи доступ к торрентам без ограничений!
. bolt.mmix.club
Авторские права
con...@...Показать
Вход на сайт
Логин:
Пароль:
 
Навигация по сайту
Популярные статьи

Торрент трекер | Скачать торрент | Скачать через Торрент | Скачать торрент бесплатно | Скачать торрент без регистрации Фильмы торрент скачать Зови меня мамой (2020) WEBRip [H.264 / 1080p-LQ] (сезон 1, серии 1-4 из 16) (обновляемая) торрент скачать бесплатно

Зови меня мамой (2020) WEBRip [H.264 / 1080p-LQ] (сезон 1, серии 1-4 из 16) (обновляемая) торрент скачать бесплатно

Фильмы торрент скачать
Зови меня мамой (2020) WEBRip [H.264 / 1080p-LQ] (сезон 1, серии 1-4 из 16) (обновляемая)Производство: Россия/K-12, RU Media, LOOK FILM
Жанр: мелодрама
Режиссер: Сергей Пикалов

Актеры
Анна Старшенбаум, Алексей Барабаш, Юрий Цурило, Андрей Фролов, Юлия Ауг, Ольга Тумайкина, Владимир Капустин, Дмитрий Муляр, Надежда Горелова, Сергей Греков и др.

Описание
События в фильме затрагивают несколько десятилетий – от 1929 года до начала Великой Отечественной войны. Дочь зажиточного деревенского мельника Татьяна знакомится с Николаем, сыном кулака из соседнего села. Их тянет друг к другу, но к Татьяне уже спешат сваты от Василия. Сердце девушки занято мыслями о Николае, и она отказывает крестнику сельского председателя. Николай и Татьяна решают быть вместе, а родители невесты – Павел и Марфа – благословляют этот союз. Кажется, счастью молодых не будет конца.

Возраст: 12+ (зрителям, достигшим 12 лет)
Дата российской премьеры: 26 октября 2020
Продолжительность: ~00: 45: 00 серия
Качество видео: WEBRip
Видео: AVC/H.264, 1920х1080, ~4840 Kbps
Аудио: AC3, 2 ch, 192 KbpsОбщее
Общее
Уникальный идентификатор : 97441881649433309071046881299702823116 (0x494E9FAF6E39DF0D23E98EBA0C4138CC)
Полное имя : G: Зови меня мамой (2020).by.AlexandrЗови меня мамой.Серия 01.by.Alexandr.mkv
Формат : Matroska
Версия формата : Version 4
Размер файла : 1, 62 Гбайт
Продолжительность : 45 м. 8 с.
Режим общего битрейта : Переменный
Общий поток : 5 133 Кбит/сек
Программа кодирования : Lavf58.29.100
Библиотека кодирования : Lavf58.29.100
ErrorDetectionType : Per level 1
Видео
Идентификатор : 1
Формат : AVC
Формат/Информация : Advanced Video Codec
Профиль формата : High@L4
Настройки формата : CABAC/2 Ref Frames
Параметр CABAC формата : Да
Параметр RefFrames формата : 2 кадра
Идентификатор кодека : V_MPEG4/ISO/AVC
Продолжительность : 45 м. 8 с.
Вид битрейта : Переменный
Битрейт : 4 838 Кбит/сек
Максимальный битрейт : 8 000 Кбит/сек
Ширина : 1 920 пикселей
Высота : 1 080 пикселей
Соотношение сторон : 16: 9
Режим частоты кадров : Постоянный
Частота кадров : 25, 000 кадров/сек
Цветовое пространство : YUV
Субдискретизация насыщенности : 4: 2: 0
Битовая глубина : 8 бит
Тип развёртки : Прогрессивная
Бит/(Пиксели*Кадры) : 0.093
Размер потока : 1, 53 Гбайт (94%)
Default : Да
Forced : Нет
Аудио
Идентификатор : 2
Формат : AC-3
Формат/Информация : Audio Coding 3
Коммерческое название : Dolby Digital
Идентификатор кодека : A_AC3
Продолжительность : 45 м. 8 с.
Вид битрейта : Постоянный
Битрейт : 192 Кбит/сек
Каналы : 2 канала
Channel layout : L R
Частота : 48, 0 КГц
Частота кадров : 31, 250 кадров/сек (1536 SPF)
Метод сжатия : С потерями
Задержка видео : -40 мс.
Размер потока : 62, 0 Мбайт (4%)
Service kind : Complete Main
Default : Да
Forced : Нет

Скриншоты для ознакомления



Все одноименные релизы в Клубе
Время раздачи: 24/7 (круглосуточно) (до появления первых 3-5 скачавших)
 
Уважаемый посетитель, Вы зашли на сайт как незарегистрированный пользователь. Мы рекомендуем Вам зарегистрироваться либо зайти на сайт под своим именем.

Другие новости по теме:

  • Зови меня своим именем / Call Me by Your Name (2017) WEB-DLRip [H.264] [VO]
  • Зови меня своим именем / Call Me by Your Name (2017) WEB-DL [H.264 / 1080p-LQ] [VO]
  • Зови меня своим именем / Call Me by Your Name (2017) BDRemux [H.264 / 1080p] [EN / EN and other Sub]
  • Зови меня своим именем / Call Me by Your Name (2017) BDRip [H.264 / 1080p] [EN / CH Sub]
  • Алисия Хименес Бартлетт | Не зови меня больше в Рим (2018) [MP3]
  • Зови меня своим именем / Call Me by Your Name (2017) BDRip
  • Зови меня мамой (2020) SATRip [H.264] (сезон 1, серии 1-2 из 16) (обновляемая)
  • Зови меня мамой (2020) WEBRip (сезон 1, серии 1-12 из 12)


  • Информация
    Посетители, находящиеся в группе Гости, не могут оставлять комментарии в данной новости.
    Главная страница | Регистрация | Добавить новость | Новое на сайте Copyright © 2019. bolt.mmix.club All Rights Reserved