Подписывайся на наш канал в Telegram https://t.me/torrentok и получи доступ к торрентам без ограничений!
. bolt.mmix.club
Авторские права
con...@...Показать
Вход на сайт
Логин:
Пароль:
 
Навигация по сайту
Популярные статьи

Торрент трекер | Скачать торрент | Скачать через Торрент | Скачать торрент бесплатно | Скачать торрент без регистрации Фильмы торрент скачать Тебе не спрятаться / No te puedes esconder (2019) WEB-DLRip (сезон 1, серии 1-10 из 10) ViruseProject [AD] торрент скачать бесплатно

Тебе не спрятаться / No te puedes esconder (2019) WEB-DLRip (сезон 1, серии 1-10 из 10) ViruseProject [AD] торрент скачать бесплатно

Фильмы торрент скачать
Тебе не спрятаться / No te puedes esconder (2019) WEB-DLRip (сезон 1, серии 1-10 из 10) ViruseProject [AD]Производство: Мексика/Telemundo Internacional Studios, Isla Audiovisual, Netflix
Жанр: боевик, криминал
Режиссер: Алехандро Бассано, Marcela Sevilla, Мануэль Санабрия

Актеры
Бланка Сото, Эдуардо Норьега, Иван Санчес, Марибель Верду, Саманта Сикеирос, Patricia Guirado, Хорхе Бош, Хэлли Ким, Пере Понсе, Питер Вайвз Ньюи и д.р.

Описание

Главная героиня сериала Моника, подозревает, что ее муж совсем не тот, за кого пытается себя выдавать. И когда она узнает о нем шокирующую правду, то решает поставить в известность федеральных агентов. После этого Моника сбегает из Мексики по программе защиты свидетелей. Ей и ее дочке дают новые личности. С этого момента начинается их новая жизнь в Мадриде. Им предстоит попытаться забыть те ужасы, которые они пережили, чтобы начать жизнь с чистого листа. Вскоре после этого Моника знакомится с Алексом, который увлекается фотоискусством. Поначалу он кажется ей очень романтичным, но через некоторое время обнаруживается, что Алекс одержим смертью…


Релиз от: ViruseProject
Продолжительность: ~00: 45: 00 серия
Качество видео: WEB-DLRip
Перевод: Двуголосый закадровый (ViruseProject)
Субтитры: Русские (отдельно)
Реклама: Присутствуют видео, аудио вставки рекламы
Видео: XviD, 720x328 (2, 2: 1), ~1599 Kbps
Аудио #1: MP3, 2 ch, 128 Kbps - русский
Аудио #2: MP3, 2 ch, 128 Kbps - испанский
Общее
Полное имя : F: ОЗВУЧКА888-ЗАЛИВ-888No.Te.Puedes.Esconder.S01.ViruseProjectNo.Te.Puedes.Esconder.S01.400p.ViruseProjectNo.Te.Puedes.Esconder.S01E01.400p.WEB-DLRip.ViruseProject.avi
Формат : AVI
Формат/Информация : Audio Video Interleave
Размер файла : 622 Мбайт
Продолжительность : 46 м. 33 с.
Режим общего битрейта : Переменный
Общий поток : 1 869 Кбит/сек
Программа кодирования : VirtualDubMod 1.5.10.2 (build 2540/release)
Библиотека кодирования : VirtualDubMod build 2540/release
Видео
Идентификатор : 0
Формат : MPEG-4 Visual
Профиль формата : Advanced Simple@L5
Настройки формата : BVOP2
Параметр BVOP формата : 2
Параметр QPel формата : Нет
Параметр GMC формата : Без точки перехода
Параметр матрицы формата : Default (H.263)
Идентификатор кодека : XVID
Идентификатор кодека/Подсказка : XviD
Продолжительность : 46 м. 33 с.
Битрейт : 1 599 Кбит/сек
Ширина : 720 пикселей
Высота : 328 пикселей
Соотношение сторон : 2, 2: 1
Частота кадров : 23, 976 (24000/1001) кадра/сек
Цветовое пространство : YUV
Субдискретизация насыщенности : 4: 2: 0
Битовая глубина : 8 бит
Тип развёртки : Прогрессивная
Метод сжатия : С потерями
Бит/(Пиксели*Кадры) : 0.282
Размер потока : 533 Мбайт (86%)
Библиотека кодирования : XviD 69
Аудио #1
Идентификатор : 1
Формат : MPEG Audio
Версия формата : Version 1
Профиль формата : Layer 3
Настройки формата : Joint stereo/MS Stereo
Идентификатор кодека : 55
Идентификатор кодека/Подсказка : MP3
Продолжительность : 46 м. 33 с.
Вид битрейта : Переменный
Битрейт : 128 Кбит/сек
Каналы : 2 канала
Частота : 48, 0 КГц
Частота кадров : 41, 667 кадра/сек (1152 SPF)
Метод сжатия : С потерями
Размер потока : 42, 6 Мбайт (7%)
Выравнивание : Соединение по промежуткам
Продолжительность промежутка : 42 мс. (1, 00 видеокадр)
Время предзагрузки промежутка : 504 мс.
Библиотека кодирования : LAME3.99.5
Аудио #2
Идентификатор : 2
Формат : MPEG Audio
Версия формата : Version 1
Профиль формата : Layer 3
Настройки формата : Joint stereo/MS Stereo
Идентификатор кодека : 55
Идентификатор кодека/Подсказка : MP3
Продолжительность : 46 м. 33 с.
Вид битрейта : Постоянный
Битрейт : 128 Кбит/сек
Каналы : 2 канала
Частота : 48, 0 КГц
Метод сжатия : С потерями
Размер потока : 42, 6 Мбайт (7%)
Выравнивание : Разделение по промежуткам
Продолжительность промежутка : 42 мс. (1, 00 видеокадр)
Время предзагрузки промежутка : 500 мс.
Библиотека кодирования : LAME3.100

Скриншоты для ознакомления



Все одноименные релизы в Клубе
Время раздачи: с 10: 00 до 24: 00 (до появления первых 3-5 скачавших)
 
Уважаемый посетитель, Вы зашли на сайт как незарегистрированный пользователь. Мы рекомендуем Вам зарегистрироваться либо зайти на сайт под своим именем.

Другие новости по теме:

  • Тебе не спрятаться / No te puedes esconder (2019) WEB-DLRip [H.264 / 1080p-LQ] (сезон 1, серии 1-10 из 10) ViruseProject [AD]


  • Информация
    Посетители, находящиеся в группе Гости, не могут оставлять комментарии в данной новости.
    Главная страница | Регистрация | Добавить новость | Новое на сайте Copyright © 2019. bolt.mmix.club All Rights Reserved