Подписывайся на наш канал в Telegram https://t.me/torrentok и получи доступ к торрентам без ограничений!
. bolt.mmix.club
Авторские права
con...@...Показать
Вход на сайт
Логин:
Пароль:
 
Навигация по сайту
Популярные статьи

Торрент трекер | Скачать торрент | Скачать через Торрент | Скачать торрент бесплатно | Скачать торрент без регистрации Фильмы торрент скачать Последняя капля / On the Rocks (2020) WEB-DL [H.264 / 720p] торрент скачать бесплатно

Последняя капля / On the Rocks (2020) WEB-DL [H.264 / 720p] торрент скачать бесплатно

Фильмы торрент скачать
Последняя капля / On the Rocks (2020) WEB-DL [H.264 / 720p]Производство: США/A24, American Zoetrope
Жанр: Драма, комедия
Режиссер: София Коппола

Актеры
Билл Мюррей, Рашида Джонс, Марлон Уайанс, Джессика Хенвик, Дженни Слейт, Лиянна Мускат, Александра Мэри Реймер, Анна Шанель Реймер, Барбара Бэйн, Джулиана Кэнвилд

Описание

Лаура думает, что она счастлива замужем, но, когда её муж Дин начинает проводить вечера в офисе с новой коллегой, в её голову закрадываются сомнения. Лаура обращается за помощью к своему харизматичному и импульсивному отцу Феликсу, который предлагает начать слежку за Дином. Когда отец и дочь отправляются в приключение по ночному Нью-Йорку, неожиданно для себя они обнаруживают, что в основе этого путешествия лежат их собственные отношения.


Рейтинг MPAA: R (лицам до 17 лет обязательно присутствие взрослого)
Дата мировой премьеры: 22 сентября 2020
Релиз от: mike7025
Продолжительность: 01: 36: 50
Качество видео: WEB-DL
Перевод: Дублированный, многоголосый профессиональный
Субтитры: Русские (forced х2, full), украинские, английские, эстонские, литовские, латышские, немецкие
Видео: AVC/H.264, 1280x692, ~4000 Kbps
Аудио 1: E-AC3+Atmos, 6 ch, 768 Kbps - Русский (Dub, Apple TV+)
Аудио 2: AC3, 6 ch, 448 Kbps - Русский (MVO, HDRezka Studio)
Аудио 3: АAC, 2 ch, 192 Kbps - Украинский (VO, В одне рило)
Аудио 4: Е-AC3+Atmos, 6 ch, 768 Kbps - Английский
General
Unique ID : 87412093475397690179541922586805363503 (0x41C2F4F2FAF1F9A13B2928CF2D77632F)
Complete name : S: On.The.Rocks.2020.ATVP.WEB-DL.720p.mkv
Format : Matroska
Format version : Version 4
File size : 4.18 GiB
Duration : 1 h 36 min
Overall bit rate : 6 183 kb/s
Encoded date : UTC 2020-10-26 18: 29: 33
Writing application : mkvmerge v20.0.0 (\'I Am The Sun\') 64-bit
Writing library : libebml v1.3.5 + libmatroska v1.4.8
Video
ID : 1
Format : AVC
Format/Info : Advanced Video Codec
Format profile : High@L3.1
Format settings : CABAC/4 Ref Frames
Format settings, CABAC : Yes
Format settings, Reference frames : 4 frames
Codec ID : V_MPEG4/ISO/AVC
Duration : 1 h 36 min
Bit rate : 4 000 kb/s
Width : 1 280 pixels
Height : 692 pixels
Display aspect ratio : 1.85: 1
Frame rate mode : Constant
Frame rate : 23.976 (24000/1001) FPS
Color space : YUV
Chroma subsampling : 4: 2: 0
Bit depth : 8 bits
Scan type : Progressive
Bits/(Pixel*Frame) : 0.188
Stream size : 2.71 GiB (65%)
Writing library : x264 core 159
Encoding settings : cabac=1/ref=2/deblock=1: 0: 0/analyse=0x3: 0x113/me=hex/subme=6/psy=1/psy_rd=1.00: 0.00/mixed_ref=1/me_range=16/chroma_me=1/trellis=1/8x8dct=1/cqm=0/deadzone=21, 11/fast_pskip=1/chroma_qp_offset=-2/threads=22/lookahead_threads=3/sliced_threads=0/nr=0/decimate=1/interlaced=0/bluray_compat=0/constrained_intra=0/bframes=3/b_pyramid=2/b_adapt=1/b_bias=0/direct=1/weightb=1/open_gop=0/weightp=1/keyint=250/keyint_min=23/scenecut=40/intra_refresh=0/rc_lookahead=30/rc=2pass/mbtree=1/bitrate=4000/ratetol=1.0/qcomp=0.60/qpmin=0/qpmax=69/qpstep=4/cplxblur=20.0/qblur=0.5/ip_ratio=1.40/aq=1: 1.00
Language : English
Default : Yes
Forced : No
Audio #1
ID : 2
Format : E-AC-3 JOC
Format/Info : Enhanced AC-3 with Joint Object Coding
Commercial name : Dolby Digital Plus with Dolby Atmos
Codec ID : A_EAC3
Duration : 1 h 36 min
Bit rate mode : Constant
Bit rate : 768 kb/s
Channel(s) : 6 channels
Channel layout : L R C LFE Ls Rs
Sampling rate : 48.0 kHz
Frame rate : 31.250 FPS (1536 SPF)
Compression mode : Lossy
Stream size : 532 MiB (12%)
Title : Dub Apple TV+
Language : Russian
Service kind : Complete Main
Default : Yes
Forced : No
Complexity index : 16
Number of dynamic objects : 15
Bed channel count : 1 channel
Bed channel configuration : LFE
Audio #2
ID : 3
Format : AC-3
Format/Info : Audio Coding 3
Commercial name : Dolby Digital
Codec ID : A_AC3
Duration : 1 h 36 min
Bit rate mode : Constant
Bit rate : 448 kb/s
Channel(s) : 6 channels
Channel layout : L R C LFE Ls Rs
Sampling rate : 48.0 kHz
Frame rate : 31.250 FPS (1536 SPF)
Compression mode : Lossy
Stream size : 310 MiB (7%)
Title : MVO HDRezka Studio
Language : Russian
Service kind : Complete Main
Default : No
Forced : No
Audio #3
ID : 4
Format : AAC LC
Format/Info : Advanced Audio Codec Low Complexity
Codec ID : A_AAC-2
Duration : 1 h 36 min
Bit rate : 192 kb/s
Channel(s) : 2 channels
Channel layout : L R
Sampling rate : 48.0 kHz
Frame rate : 46.875 FPS (1024 SPF)
Compression mode : Lossy
Stream size : 135 MiB (3%)
Title : VO В одне рило
Language : Ukrainian
Default : No
Forced : No
Audio #4
ID : 5
Format : E-AC-3 JOC
Format/Info : Enhanced AC-3 with Joint Object Coding
Commercial name : Dolby Digital Plus with Dolby Atmos
Codec ID : A_EAC3
Duration : 1 h 36 min
Bit rate mode : Constant
Bit rate : 768 kb/s
Channel(s) : 6 channels
Channel layout : L R C LFE Ls Rs
Sampling rate : 48.0 kHz
Frame rate : 31.250 FPS (1536 SPF)
Compression mode : Lossy
Stream size : 532 MiB (12%)
Language : English
Service kind : Complete Main
Default : No
Forced : No
Complexity index : 16
Number of dynamic objects : 15
Bed channel count : 1 channel
Bed channel configuration : LFE
Text #1
ID : 6
Format : UTF-8
Codec ID : S_TEXT/UTF8
Codec ID/Info : UTF-8 Plain Text
Duration : 1 h 26 min
Bit rate : 3 b/s
Count of elements : 50
Stream size : 2.42 KiB (0%)
Title : Forced
Language : Russian
Default : Yes
Forced : No
Text #2
ID : 7
Format : UTF-8
Codec ID : S_TEXT/UTF8
Codec ID/Info : UTF-8 Plain Text
Duration : 1 h 22 min
Bit rate : 4 b/s
Count of elements : 42
Stream size : 2.49 KiB (0%)
Title : Forced HDRezka Studio
Language : Russian
Default : No
Forced : No
Text #3
ID : 8
Format : UTF-8
Codec ID : S_TEXT/UTF8
Codec ID/Info : UTF-8 Plain Text
Duration : 1 h 36 min
Bit rate : 96 b/s
Count of elements : 1409
Stream size : 68.0 KiB (0%)
Language : Russian
Default : No
Forced : No
Text #4
ID : 9
Format : UTF-8
Codec ID : S_TEXT/UTF8
Codec ID/Info : UTF-8 Plain Text
Duration : 1 h 36 min
Bit rate : 91 b/s
Count of elements : 1409
Stream size : 64.4 KiB (0%)
Language : Ukrainian
Default : No
Forced : No
Text #5
ID : 10
Format : UTF-8
Codec ID : S_TEXT/UTF8
Codec ID/Info : UTF-8 Plain Text
Duration : 1 h 29 min
Bit rate : 68 b/s
Count of elements : 1397
Stream size : 45.0 KiB (0%)
Language : English
Default : No
Forced : No
Text #6
ID : 11
Format : UTF-8
Codec ID : S_TEXT/UTF8
Codec ID/Info : UTF-8 Plain Text
Duration : 1 h 36 min
Bit rate : 59 b/s
Count of elements : 1265
Stream size : 42.1 KiB (0%)
Language : Estonian
Default : No
Forced : No
Text #7
ID : 12
Format : UTF-8
Codec ID : S_TEXT/UTF8
Codec ID/Info : UTF-8 Plain Text
Duration : 1 h 36 min
Bit rate : 62 b/s
Count of elements : 1408
Stream size : 43.8 KiB (0%)
Language : Lithuanian
Default : No
Forced : No
Text #8
ID : 13
Format : UTF-8
Codec ID : S_TEXT/UTF8
Codec ID/Info : UTF-8 Plain Text
Duration : 1 h 36 min
Bit rate : 64 b/s
Count of elements : 1401
Stream size : 45.7 KiB (0%)
Language : Latvian
Default : No
Forced : No
Text #9
ID : 14
Format : UTF-8
Codec ID : S_TEXT/UTF8
Codec ID/Info : UTF-8 Plain Text
Duration : 1 h 36 min
Bit rate : 66 b/s
Count of elements : 1259
Stream size : 47.0 KiB (0%)
Language : German
Default : No
Forced : No

Скриншоты для ознакомления




Все одноименные релизы в Клубе
Время раздачи: 24/7 (до появления первых 3-5 скачавших)
 
Уважаемый посетитель, Вы зашли на сайт как незарегистрированный пользователь. Мы рекомендуем Вам зарегистрироваться либо зайти на сайт под своим именем.

Другие новости по теме:

  • Последняя капля / The Final Straw (2013) WEB-DLRip скачать через торрент бесплатно
  • Лариса Соболева | Последняя капля желаний (2018) [FB2]
  • Последняя капля / On the Rocks (2020) WEB-DLRip [MVO] [AD]
  • Последняя капля / On the Rocks (2020) WEB-DLRip [H.264 / 1080p-LQ] [MVO] [AD]
  • Последняя капля / On the Rocks (2020) WEB-DL [H.264 / 1080p]
  • Последняя капля / On the Rocks (2020) WEB-DL [H.264 / 1080p]
  • Последняя капля / On the Rocks (2020) WEB-DLRip [H.264]


  • Информация
    Посетители, находящиеся в группе Гости, не могут оставлять комментарии в данной новости.
    Главная страница | Регистрация | Добавить новость | Новое на сайте Copyright © 2019. bolt.mmix.club All Rights Reserved