Подписывайся на наш канал в Telegram https://t.me/torrentok и получи доступ к торрентам без ограничений!
. bolt.mmix.club
Авторские права
con...@...Показать
Вход на сайт
Логин:
Пароль:
 
Навигация по сайту
Популярные статьи

Торрент трекер | Скачать торрент | Скачать через Торрент | Скачать торрент бесплатно | Скачать торрент без регистрации Фильмы торрент скачать Крушение искусственного интеллекта / AI Houkai (2020) BDRip [H.264 / 720p-LQ] [MVO] [AD] торрент скачать бесплатно

Крушение искусственного интеллекта / AI Houkai (2020) BDRip [H.264 / 720p-LQ] [MVO] [AD] торрент скачать бесплатно

Фильмы торрент скачать
Крушение искусственного интеллекта / AI Houkai (2020) BDRip [H.264 / 720p-LQ] [MVO] [AD]Производство: Япония/Chukyo TV Broadcasting Company (CTV), Core International Co., Credeus
Жанр: Фантастика, триллер
Режиссер: Ю Ириэ

Актеры
Такао Осава, Сэй Асина, Элис Хиросэ, Таканори Ивата, Кэнто Каку, Риса Камеда, Томокадзу Миура, Масаки Наито, Масахиро Такасима, Сора Тамаки

Описание

2030 год. Искусственный интеллект стал неотъемлемой частью жизни людей. Однажды медицинская система Нодзоми, созданная Косукэ Кирю, выходит из-под контроля: вместо того чтобы помогать людям, система отсеивает тех, кого считает неподходящими для жизни. Косукэ должен остановить свое творение до того, как оно начнет убивать.


Дата мировой премьеры: 31 января 2020
Продолжительность: 02: 10: 33
Качество видео: BDRip
Перевод: Многоголосый закадровый, любительский (КОЛОБОК)
Субтитры: Отсутствуют
Реклама: Присутствует баннер.
Видео: AVC/H.264, 1280x536, ~7872 Kbps
Аудио: AC-3, 2 ch, 384 Kbps
Общее
Полное имя : D: NNMКрушение искусственного интеллектаAI.Houkai.2020.BDRip.720p-LQ.mkv
Формат : Matroska
Версия формата : Version 2
Размер файла : 7, 68 Гбайт
Продолжительность : 2 ч. 10 м.
Режим общего битрейта : Переменный
Общий поток : 8424 Кбит/сек
Программа кодирования : libmatroska 1.4.1
Библиотека кодирования : SolveigMM Matroska Muxer Version 1.0.1904.23
Видео
Идентификатор : 1
Формат : AVC
Формат/Информация : Advanced Video Codec
Профиль формата : High@L4.1
Настройки формата : CABAC/4 Ref Frames
Параметр CABAC формата : Да
Параметр RefFrames формата : 4 кадра
Идентификатор кодека : V_MPEG4/ISO/AVC
Продолжительность : 2 ч. 10 м.
Вид битрейта : Переменный
Битрейт : 7872 Кбит/сек
Номинальный битрейт : 9000 Кбит/сек
Максимальный битрейт : 9000 Кбит/сек
Ширина : 1280 пикселей
Высота : 536 пикселей
Соотношение сторон : 2, 40: 1
Режим частоты кадров : Постоянный
Частота кадров : 23, 976 (24000/1001) кадра/сек
Стандарт вещания : Component
Цветовое пространство : YUV
Субдискретизация насыщенности : 4: 2: 0
Битовая глубина : 8 бит
Тип развёртки : Прогрессивная
Бит/(Пиксели*Кадры) : 0.479
Размер потока : 7, 18 Гбайт (93%)
Default : Нет
Forced : Нет
Цветовой диапазон : Limited
Основные цвета : BT.709
Характеристики трансфера : BT.709
Коэффициенты матрицы : BT.709
Аудио
Идентификатор : 2
Формат : AC-3
Формат/Информация : Audio Coding 3
Коммерческое название : Dolby Digital
Идентификатор кодека : A_AC3
Продолжительность : 2 ч. 10 м.
Вид битрейта : Постоянный
Битрейт : 384 Кбит/сек
Каналы : 2 канала
ChannelLayout : L R
Частота : 48, 0 КГц
Частота кадров : 31, 250 кадров/сек (1536 SPF)
Метод сжатия : С потерями
Размер потока : 359 Мбайт (5%)
Язык : Russian
ServiceKind/String : Complete Main
Default : Нет
Forced : Нет

Скриншоты для ознакомления



Все одноименные релизы в Клубе Время раздачи: 24/7 (до первых 3-5 скачавших)
 
Уважаемый посетитель, Вы зашли на сайт как незарегистрированный пользователь. Мы рекомендуем Вам зарегистрироваться либо зайти на сайт под своим именем.

Другие новости по теме:

  • Крушение искусственного интеллекта / AI Houkai (2020) HDRip [MVO] [AD]


  • Информация
    Посетители, находящиеся в группе Гости, не могут оставлять комментарии в данной новости.
    Главная страница | Регистрация | Добавить новость | Новое на сайте Copyright © 2019. bolt.mmix.club All Rights Reserved