Подписывайся на наш канал в Telegram https://t.me/torrentok и получи доступ к торрентам без ограничений!
. bolt.mmix.club
Авторские права
con...@...Показать
Вход на сайт
Логин:
Пароль:
 
Навигация по сайту
Популярные статьи

Торрент трекер | Скачать торрент | Скачать через Торрент | Скачать торрент бесплатно | Скачать торрент без регистрации Фильмы торрент скачать Амнезия / Absentia (2020) WEBRip (сезон 3, серии 1-10 из 10) Sony Sci-Fi торрент скачать бесплатно

Амнезия / Absentia (2020) WEBRip (сезон 3, серии 1-10 из 10) Sony Sci-Fi торрент скачать бесплатно

Фильмы торрент скачать
Амнезия / Absentia (2020) WEBRip (сезон 3, серии 1-10 из 10) Sony Sci-FiПроизводство: США/Masha Productions
Жанр: триллер, драма, криминал, детектив
Режиссер: Одед Рускин, Кася Адамик, Адам Сэндерсон

Актеры
Стана Катик, Патрик Хьюсингер, Кара Теоболд, Нил Джексон, Пол Фримен, Кристофер Колкухоун, Патрик МакОли, Анхель Бунани, Мэттью Ле Невез, Бруно Бичир и др.

Описание

Бесследно исчезает агент ФБР Эмили Бирн, которая расследует дело одного из самых известных серийных убийц Бостона. Шесть лет спустя её находят в заброшенном доме. Эмили почти ничего не помнит о времени, проведённом в заточении. Героиня ищет разгадку тайны своего похищения и пытается снова соединиться со своей семьей, у которой теперь новая жизнь.


Возраст: 16+ (зрителям, достигшим 16 лет)
Продолжительность: ~00: 45: 00 серия
Качество видео: WEBRip
Перевод: Дублированный (Sony Sci-Fi )
Субтитры: Русские (Forced, Full), английские (SDH) (отдельно)
Видео: Xvid, 720x400, ~1700 Kbps
Аудио #1: AC3, 2 ch, 192 Kbps - русский
Аудио #2: AC3, 2 ch, 192 Kbps - английский
Общее
Полное имя : D: Absentia (Season 3) WEB-DLRipAbsentia.S03E05.WEB-DLRip. .Wentworth_Miller.avi
Формат : AVI
Формат/Информация : Audio Video Interleave
Размер файла : 682 Мбайт
Продолжительность : 45 м. 26 с.
Общий поток : 2 098 Кбит/сек
Программа кодирования : VirtualDubMod 1.5.10.3 |www.virtualdub-fr.org|| (build 2550/release)
Видео
Идентификатор : 0
Формат : MPEG-4 Visual
Профиль формата : Advanced Simple@L5
Настройки формата : BVOP1/Custom Matrix
Параметр BVOP формата : 1
Параметр QPel формата : Нет
Параметр GMC формата : Без точки перехода
Параметр матрицы формата : Выборочная
Идентификатор кодека : XVID
Идентификатор кодека/Подсказка : XviD
Продолжительность : 45 м. 26 с.
Битрейт : 1 700 Кбит/сек
Ширина : 720 пикселей
Высота : 400 пикселей
Соотношение сторон : 16: 9
Частота кадров : 23, 976 (24000/1001) кадра/сек
Цветовое пространство : YUV
Субдискретизация насыщенности : 4: 2: 0
Битовая глубина : 8 бит
Тип развёртки : Прогрессивная
Метод сжатия : С потерями
Бит/(Пиксели*Кадры) : 0.246
Размер потока : 552 Мбайт (81%)
Библиотека кодирования : XviD 69
Аудио #1
Идентификатор : 1
Формат : AC-3
Формат/Информация : Audio Coding 3
Коммерческое название : Dolby Digital
Идентификатор кодека : 2000
Продолжительность : 45 м. 26 с.
Вид битрейта : Постоянный
Битрейт : 192 Кбит/сек
Каналы : 2 канала
Channel layout : L R
Частота : 48, 0 КГц
Частота кадров : 31, 250 кадров/сек (1536 SPF)
Метод сжатия : С потерями
Размер потока : 62, 4 Мбайт (9%)
Выравнивание : Разделение по промежуткам
Продолжительность промежутка : 42 мс. (1, 00 видеокадр)
Время предзагрузки промежутка : 500 мс.
Service kind : Complete Main
Аудио #2
Идентификатор : 2
Формат : AC-3
Формат/Информация : Audio Coding 3
Коммерческое название : Dolby Digital
Идентификатор кодека : 2000
Продолжительность : 45 м. 26 с.
Вид битрейта : Постоянный
Битрейт : 192 Кбит/сек
Каналы : 2 канала
Channel layout : L R
Частота : 48, 0 КГц
Частота кадров : 31, 250 кадров/сек (1536 SPF)
Метод сжатия : С потерями
Размер потока : 62, 4 Мбайт (9%)
Выравнивание : Разделение по промежуткам
Продолжительность промежутка : 42 мс. (1, 00 видеокадр)
Время предзагрузки промежутка : 500 мс.
Service kind : Complete Main
 
Уважаемый посетитель, Вы зашли на сайт как незарегистрированный пользователь. Мы рекомендуем Вам зарегистрироваться либо зайти на сайт под своим именем.

Другие новости по теме:

  • Амнезия / Absentia (2017) WEBRip [H.264 / 720p-LQ] (серии 1 из 10) Sony Sci-Fi (обновляемая)
  • Амнезия / Absentia (2017) HDTV [H.264 / 1080p-LQ] (сезон 1, серии 1-3 из 10) Sony Sci-Fi (обновляемая)
  • Амнезия / Absentia (2017) WEB-DL [H.264 / 1080p-LQ] (сезон 1, серии 1-10 из 10) TVShows
  • Амнезия / Absentia (2019) WEBRip (сезон 2, серии 1-10 из 10) Sony Sci-Fi
  • Амнезия / Absentia (2017-2019) WEBRip (сезон 1-2, серии 1-20 из 20) Sony Sci-Fi
  • Амнезия / Absentia (2020) WEBRip (сезон 3, серии 1-10 из 10) Kerob [AD]
  • Амнезия / Absentia (2020) WEBRip [H.264 / 1080p-LQ] (сезон 3, серии 1-10 из 10) LakeFilms [AD]
  • Амнезия / Absentia (2020) WEBRip [H.264 / 1080p-LQ] (сезон 3, серии 1-10 из 10) Sony Sci-Fi


  • Информация
    Посетители, находящиеся в группе Гости, не могут оставлять комментарии в данной новости.
    Главная страница | Регистрация | Добавить новость | Новое на сайте Copyright © 2019. bolt.mmix.club All Rights Reserved