Подписывайся на наш канал в Telegram https://t.me/torrentok и получи доступ к торрентам без ограничений!
. bolt.mmix.club
Авторские права
con...@...Показать
Вход на сайт
Логин:
Пароль:
 
Навигация по сайту
Популярные статьи

Торрент трекер | Скачать торрент | Скачать через Торрент | Скачать торрент бесплатно | Скачать торрент без регистрации Фильмы торрент скачать Крид 2 / Creed II (2018) BDRip [H.265 / 1080p-LQ] [10-bit] торрент скачать бесплатно

Крид 2 / Creed II (2018) BDRip [H.265 / 1080p-LQ] [10-bit] торрент скачать бесплатно

Фильмы торрент скачать
Крид 2 / Creed II (2018) BDRip [H.265 / 1080p-LQ] [10-bit]Производство: США/Metro-Goldwyn-Mayer (MGM), Warner Bros., New Line Cinema
Жанр: Драма, спорт
Режиссер: Стивен Кейпл мл.

Актеры
Майкл Б. Джордан, Сильвестр Сталлоне, Тесса Томпсон, Филисия Рашад, Дольф Лундгрен, Флориан Мунтяну, Расселл Хорнсби, Вуд Харрис, Майло Вентимилья, Робби Джонс

Описание
Жизнь Адониса Крида превратилась в череду компромиссов. Пока он разрывается между долгом и тренировками к следующему большому бою, судьба готовит ему новую невыполнимую миссию. Будущий противник тесно связан с историей его семьи, что лишь повышает ставки перед предстоящим выходом на ринг. Рокки Бальбоа всегда будет на стороне Крида, и вместе они выйдут на битву с призраками их общего прошлого, выяснят, за что действительно стоит сражаться, и поймут, что нет ничего дороже семьи. Нужно вернуться к истокам, чтобы вспомнить, что именно сделало тебя чемпионом, и что, куда бы ты не бежал, от себя все равно не скрыться.


Возраст: 16+ (зрителям, достигшим 16 лет)
Рейтинг MPAA: PG-13 (детям до 13 лет просмотр нежелателен)
Релиз от: Donatik (HEVC-CLUB)
Продолжительность: 02: 10: 00
Качество видео: BDRip
Перевод: Дублированный (Лицензия)
Субтитры: Русские (форсированные), английские
Видео: HEVC/H.265, 1920x804, ~3531 Kbps
Аудио 1: AC3, 6 ch, 640 Kbps - Русский, дублированный
Аудио 2: AC3, 6 ch, 448 Kbps - Английский
Общее
Уникальный идентификатор : 136434179247432470507110736245085766896 (0x66A444624EB4C46E18B9071CBCE504F0)
Полное имя : R: Creed II (2018) BDRip 1080p HEVC 10bit.mkv
Формат : Matroska
Версия формата : Version 4/Version 2
Размер файла : 4, 20 Гбайт
Продолжительность : 2 ч. 10 м.
Общий поток : 4621 Кбит/сек
Название фильма : Creed.2.2018.BDRemux.1080p.NNMClub
Дата кодирования : UTC 2019-03-18 18: 43: 56
Программа кодирования : mkvmerge v25.0.0 (\'Prog Noir\') 64-bit
Библиотека кодирования : libebml v1.3.6 + libmatroska v1.4.9/Lavf57.71.100
Обложка : Yes
Attachments : cover.jpg/Creed-II.jpg
ENCODING_INFO : MATROSKA, WEBM MKV 1080p 10-bit/H264 X265 CRF 17.0 Medium/AC3 AC3 CBR 192kbps/TRUEHD AC3 CBR 448kbps
Язык : und
Видео
Идентификатор : 1
Формат : HEVC
Формат/Информация : High Efficiency Video Coding
Профиль формата : Main10@L4.1@High
Идентификатор кодека : V_MPEGH/ISO/HEVC
Продолжительность : 2 ч. 10 м.
Битрейт : 3531 Кбит/сек
Ширина : 1920 пикселей
Высота : 804 пикселя
Соотношение сторон : 2, 40: 1
Режим частоты кадров : Постоянный
Частота кадров : 23, 976 (24000/1001) кадра/сек
Цветовое пространство : YUV
Субдискретизация насыщенности : 4: 2: 0
Битовая глубина : 10 бит
Бит/(Пиксели*Кадры) : 0.095
Размер потока : 3, 21 Гбайт (76%)
Библиотека кодирования : x265 2.9+9-f74003e88622: WindowsGCC 8.2.064 bit 10bit
Настройки программы : cpuid=1111039/frame-threads=7/numa-pools=6/wpp/no-pmode/no-pme/no-psnr/no-ssim/log-level=3/input-csp=1/input-res=1920x804/interlace=0/total-frames=0/level-idc=41/high-tier=1/uhd-bd=0/ref=5/allow-non-conformance/no-repeat-t_heads/annexb/no-aud/no-hrd/info/hash=0/no-temporal-layers/open-gop/min-keyint=24/keyint=240/gop-lookahead=0/bframes=8/b-adapt=2/b-pyramid/bframe-bias=0/rc-lookahead=20/lookahead-slices=5/scenecut=40/radl=0/no-intra-refresh/ctu=64/min-cu-size=8/rect/amp/max-tu-size=32/tu-inter-depth=1/tu-intra-depth=1/limit-tu=0/rdoq-level=0/dynamic-rd=0.00/no-ssim-rd/signhide/no-tskip/nr-intra=0/nr-inter=0/no-constrained-intra/no-strong-intra-smoothing/max-merge=2/limit-refs=3/no-limit-modes/me=3/subme=7/merange=57/temporal-mvp/weightp/no-weightb/no-analyze-src-pics/deblock=-3: -3/no-sao/no-sao-non-deblock/rd=3/no-early-skip/rskip/no-fast-intra/no-tskip-fast/no-cu-lossless/no-b-intra/no-splitrd-skip/rdpenalty=0/psy-rd=2.00/psy-rdoq=0.00/no-rd-refine/no-lossless/cbqpoffs=0/crqpoffs=0/rc=crf/crf=17.0/qcomp=0.70/qpstep=4/stats-write=0/stats-read=0/vbv-maxrate=50000/vbv-bufsize=50000/vbv-init=0.9/crf-max=30.0/crf-min=0.0/ipratio=1.40/pbratio=1.30/aq-mode=1/aq-strength=1.00/cutree/zone-count=0/no-strict-cbr/qg-size=32/no-rc-grain/qpmax=69/qpmin=0/no-const-vbv/sar=1/overscan=0/videoformat=5/range=0/colorprim=1/transfer=1/colormatrix=1/chromaloc=0/display-window=0/max-cll=0, 0/min-luma=0/max-luma=1023/log2-max-poc-lsb=8/vui-timing-info/vui-hrd-info/slices=1/no-opt-qp-pps/no-opt-ref-list-length-pps/no-multi-pass-opt-rps/scenecut-bias=0.05/no-opt-cu-delta-qp/no-aq-motion/no-hdr/no-hdr-opt/no-dhdr10-opt/no-idr-recovery-sei/analysis-reuse-level=5/scale-factor=0/refine-intra=0/refine-inter=0/refine-mv=0/no-limit-sao/ctu-info=0/no-lowpass-dct/refine-mv-type=0/copy-pic=1/max-ausize-factor=1.0/no-dynamic-refine/no-single-sei
Язык : English
Default : Да
Forced : Нет
Цветовой диапазон : Limited
Основные цвета : BT.709
Характеристики трансфера : BT.709
Коэффициенты матрицы : BT.709
Аудио #1
Идентификатор : 2
Формат : AC-3
Формат/Информация : Audio Coding 3
Идентификатор кодека : A_AC3
Продолжительность : 2 ч. 10 м.
Вид битрейта : Постоянный
Битрейт : 640 Кбит/сек
Каналы : 6 каналов
Расположение каналов : Front: L C R, Side: L R, LFE
Частота : 48, 0 КГц
Частота кадров : 31, 250 кадров/сек (1536 SPF)
Битовая глубина : 16 бит
Метод сжатия : С потерями
Размер потока : 595 Мбайт (14%)
Заголовок : Дубляж - Лицензия
Язык : Russian
ServiceKind/String : Complete Main
Default : Да
Forced : Нет
Аудио #2
Идентификатор : 3
Формат : AC-3
Формат/Информация : Audio Coding 3
Идентификатор кодека : A_AC3
Продолжительность : 2 ч. 10 м.
Вид битрейта : Постоянный
Битрейт : 448 Кбит/сек
Каналы : 6 каналов
Расположение каналов : Front: L C R, Side: L R, LFE
Частота : 48, 0 КГц
Частота кадров : 31, 250 кадров/сек (1536 SPF)
Битовая глубина : 16 бит
Метод сжатия : С потерями
Размер потока : 417 Мбайт (10%)
Заголовок : Original
Язык : English
ServiceKind/String : Complete Main
Default : Нет
Forced : Нет
Текст #1
Идентификатор : 4
Формат : UTF-8
Идентификатор кодека : S_TEXT/UTF8
Идентификатор кодека/Информация : UTF-8 Plain Text
Продолжительность : 1 ч. 57 м.
Битрейт : 0 бит/сек
ElementCount : 16
Размер потока : 641 байт (0%)
Заголовок : русские, форсированные
Язык : Russian
Default : Да
Forced : Нет
Текст #2
Идентификатор : 5
Формат : UTF-8
Идентификатор кодека : S_TEXT/UTF8
Идентификатор кодека/Информация : UTF-8 Plain Text
Продолжительность : 2 ч. 5 м.
Битрейт : 48 бит/сек
ElementCount : 1529
Размер потока : 44, 5 Кбайт (0%)
Заголовок : Full
Язык : English
Default : Нет
Forced : Нет
Меню
00: 00: 00.000 : : Глава 01
00: 11: 33.150 : : Глава 02
00: 20: 06.163 : : Глава 03
00: 33: 28.006 : : Глава 04
00: 43: 49.126 : : Глава 05
00: 57: 51.885 : : Глава 06
01: 06: 38.869 : : Глава 07
01: 20: 12.516 : : Глава 08
01: 31: 01.956 : : Глава 09
01: 40: 14.216 : : Глава 10
01: 50: 31.458 : : Глава 11
02: 02: 55.910 : : Глава 12
 
Уважаемый посетитель, Вы зашли на сайт как незарегистрированный пользователь. Мы рекомендуем Вам зарегистрироваться либо зайти на сайт под своим именем.

Другие новости по теме:

  • Крид: Наследие Рокки / Creed (2015) CamRip [VO] скачать через торрент бесплатно
  • Исчезновение Элис Крид / The Disappearance of Alice Creed (2009) BDRip [H.264] скачать через торрент бесплатно
  • Крид: Наследие Рокки / Creed (2015) DVDScr [VO] скачать через торрент бесплатно
  • Крид: Наследие Рокки / Creed (2015) DVDScr скачать через торрент бесплатно
  • Крид: Наследие Рокки / Creed (2015) DVDRip [H.264] скачать через торрент бесплатно
  • Крид: Наследие Рокки / Creed (2015) DVD5 [hand made] скачать через торрент бесплатно
  • VA - Крид: Наследие Рокки / Creed (Original Motion Picture Soundtrack) (2015) [MP3|320 кб / с] <Soundtrack, Hip-Hop, Rap, R&B, Soul>
  • Крид: Наследие Рокки / Creed (2015) HDRip


  • Информация
    Посетители, находящиеся в группе Гости, не могут оставлять комментарии в данной новости.
    Главная страница | Регистрация | Добавить новость | Новое на сайте Copyright © 2019. bolt.mmix.club All Rights Reserved