Подписывайся на наш канал в Telegram https://t.me/torrentok и получи доступ к торрентам без ограничений!
. bolt.mmix.club
Авторские права
con...@...Показать
Вход на сайт
Логин:
Пароль:
 
Навигация по сайту
Популярные статьи

Торрент трекер | Скачать торрент | Скачать через Торрент | Скачать торрент бесплатно | Скачать торрент без регистрации Фильмы торрент скачать Кагемуся: Тень Воина / Kagemusha (1980) BDRip [H.264] торрент скачать бесплатно

Кагемуся: Тень Воина / Kagemusha (1980) BDRip [H.264] торрент скачать бесплатно

Фильмы торрент скачать
Кагемуся: Тень Воина / Kagemusha (1980) BDRip [H.264]Производство: Япония/Toho Company, Kurosawa Production Co., Zoetrope Studios, Twentieth Century Fox
Жанр: драма, военный, история
Режиссер: Акира Куросава
Продюсеры: Акира Куросава, Джордж Лукас, Фрэнсис Форд Коппола, Томоюки Танака, Оди Бок

Актеры
Тацуя Накадай, Цутому Ямадзаки, Кэнъити Хагивара, Дзинпати Нэдзу, Хидэдзи Отаки, Дайсукэ Рю, Масаюки Юи, Каори Момои, Мицуко Байсё, Хидэо Мурота

Описание

Последняя треть XVI в. Сэнгоку дзидай (эпоха воюющих провинций). Даймё Овари Ода Нобунага захватил Киото и стал владыкой Кинки. Однако Такэда Сингэн, знаменитый полководец, перед которым трепещет даже Нобунага, имеет свои планы на столицу. Он движется к ней со своей закаленной в боях армией. На его пути только маленький замок, где укрылся мелкий союзник Ода — Иэясу. Воины Такэда перекрыли доступ воды в замок, и его падение — вопрос нескольких дней. Но шальная пуля смертельно ранит Сингэна, осаду снимают, армия возвращается в Синано.
Враги не должны узнать о гибели Сингэна. Это придаст им уверенности, они тут же нападут. И место погибшего даймё занимает двойник, бывший бродяга и вор. Ему суждено стать тенью великого воина.
Апофеоз картины — битва при Нагасино. Самурайская доблесть гибнет под залпами тэппо (аркебуз). Эпоха великих воинов уходит в прошлое. И только тень Сингэна пытается поднять его знамя.


Возраст: 16+ (зрителям, достигшим 16 лет)
Рейтинг MPAA: PG (рекомендуется присутствие родителей)
Релиз от: Веселый Гном, RG NNM Club Video
Продолжительность: 03: 00: 36
Качество видео: BDRip
Перевод: Многоголосый профессиональный
Субтитры: русские, французские, английские
Видео: AVC/H.264, 720x390, ~3500 kbps
Аудио 1: AC3, 2 ch, 192 kbps - русский (MVO)
Аудио 2: AC3, 2 ch, 576 kbps - Japanese
x264 info: frame I: 1498 Avg QP: 17.45 size: 80882
x264 info: frame P: 49509 Avg QP: 20.43 size: 34772
x264 info: frame B: 208818 Avg QP: 22.93 size: 13882
x264 info: consecutive B-frames: 1.1% 1.3% 4.4% 15.9% 15.6% 40.8% 9.5% 2.6% 3.7% 1.2% 1.7% 1.5% 0.7%
°°°
General
Unique ID : 140192416925587489545984760014470534078 (0x697813CEBC94E788AB3D974C120A53BE)
Complete name : I: Bousculer en µKagemusha.1980Kagemusha°1980 Веселый Гном.mkv
Format : Matroska
Format version : Version 4
File size : 5.39 GiB
Duration : 3 h 0 min
Overall bit rate : 4 270 kb/s
Movie name : Kagemusha°1980
Encoded date : UTC 2020-10-25 12: 00: 05
Writing application : mkvmerge v29.0.0 (\'Like It Or Not\') 64-bit
Writing library : libebml v1.3.6 + libmatroska v1.4.9/Lavf58.49.100
Copyright : Œuvre de Gnome Jovial
Video
ID : 1
Format : AVC
Format/Info : Advanced Video Codec
Format profile : High@L4.1
Format settings : CABAC/9 Ref Frames
Format settings, CABAC : Yes
Format settings, ReFrames : 9 frames
Codec ID : V_MPEG4/ISO/AVC
Duration : 3 h 0 min
Bit rate : 3 500 kb/s
Width : 720 pixels
Height : 390 pixels
Display aspect ratio : 1.85: 1
Frame rate mode : Constant
Frame rate : 23.976 (24000/1001) FPS
Color space : YUV
Chroma subsampling : 4: 2: 0
Bit depth : 8 bits
Scan type : Progressive
Bits/(Pixel*Frame) : 0.520
Stream size : 4.42 GiB (82%)
Writing library : x264 core 157 r2935 545de2f
Encoding settings : cabac=1/ref=9/deblock=1: -1: -1/analyse=0x3: 0x133/me=umh/subme=11/psy=1/psy_rd=1.00: 0.00/mixed_ref=1/me_range=32/chroma_me=1/trellis=2/8x8dct=1/cqm=0/deadzone=21, 11/fast_pskip=0/chroma_qp_offset=-2/threads=12/lookahead_threads=3/sliced_threads=0/nr=0/decimate=0/interlaced=0/bluray_compat=0/constrained_intra=0/bframes=12/b_pyramid=2/b_adapt=2/b_bias=0/direct=3/weightb=1/open_gop=0/weightp=2/keyint=240/keyint_min=24/scenecut=40/intra_refresh=0/rc_lookahead=60/rc=2pass/mbtree=1/bitrate=3500/ratetol=1.0/qcomp=0.70/qpmin=0/qpmax=69/qpstep=4/cplxblur=20.0/qblur=0.5/vbv_maxrate=62500/vbv_bufsize=78125/nal_hrd=none/filler=0/ip_ratio=1.40/aq=2: 0.70
Language : Japanese
Default : Yes
Forced : No
Color range : Limited
Color primaries : BT.709
Transfer characteristics : BT.709
Matrix coefficients : BT.709
Audio #1
ID : 2
Format : AC-3
Format/Info : Audio Coding 3
Commercial name : Dolby Digital
Codec ID : A_AC3
Duration : 3 h 0 min
Bit rate mode : Constant
Bit rate : 192 kb/s
Channel(s) : 2 channels
Channel layout : L R
Sampling rate : 48.0 kHz
Frame rate : 31.250 FPS (1536 SPF)
Bit depth : 16 bits
Compression mode : Lossy
Delay relative to video : -5 ms
Stream size : 248 MiB (4%)
Title : MVO
Language : Russian
Service kind : Complete Main
Default : Yes
Forced : No
Audio #2
ID : 3
Format : AC-3
Format/Info : Audio Coding 3
Commercial name : Dolby Digital
Codec ID : A_AC3
Duration : 3 h 0 min
Bit rate mode : Constant
Bit rate : 576 kb/s
Channel(s) : 2 channels
Channel layout : L R
Sampling rate : 48.0 kHz
Frame rate : 31.250 FPS (1536 SPF)
Bit depth : 16 bits
Compression mode : Lossy
Delay relative to video : -5 ms
Stream size : 744 MiB (13%)
Writing library : Lavc58.97.102 ac3_fixed
Language : Japanese
Service kind : Complete Main
Default : No
Forced : No
Text #1
ID : 4
Format : UTF-8
Codec ID : S_TEXT/UTF8
Codec ID/Info : UTF-8 Plain Text
Duration : 2 h 59 min
Bit rate : 41 b/s
Count of elements : 1014
Stream size : 54.7 KiB (0%)
Language : Russian
Default : Yes
Forced : No
Text #2
ID : 5
Format : UTF-8
Codec ID : S_TEXT/UTF8
Codec ID/Info : UTF-8 Plain Text
Duration : 3 h 0 min
Bit rate : 24 b/s
Count of elements : 1046
Stream size : 32.3 KiB (0%)
Language : French
Default : No
Forced : No
Text #3
ID : 6
Format : UTF-8
Codec ID : S_TEXT/UTF8
Codec ID/Info : UTF-8 Plain Text
Duration : 3 h 0 min
Bit rate : 22 b/s
Count of elements : 1047
Stream size : 29.5 KiB (0%)
Language : English
Default : No
Forced : No
 
Уважаемый посетитель, Вы зашли на сайт как незарегистрированный пользователь. Мы рекомендуем Вам зарегистрироваться либо зайти на сайт под своим именем.

Другие новости по теме:

  • Кагемуся: Тень воина / Kagemusha (1980) BDRip [H.264 / 1080р-LQ]


  • Информация
    Посетители, находящиеся в группе Гости, не могут оставлять комментарии в данной новости.
    Главная страница | Регистрация | Добавить новость | Новое на сайте Copyright © 2019. bolt.mmix.club All Rights Reserved