Подписывайся на наш канал в Telegram https://t.me/torrentok и получи доступ к торрентам без ограничений!
. bolt.mmix.club
Авторские права
con...@...Показать
Вход на сайт
Логин:
Пароль:
 
Навигация по сайту
Популярные статьи

Торрент трекер | Скачать торрент | Скачать через Торрент | Скачать торрент бесплатно | Скачать торрент без регистрации Фильмы торрент скачать Амулет / Amulet (2020) BDRip [H.264 / 720p-LQ] торрент скачать бесплатно

Амулет / Amulet (2020) BDRip [H.264 / 720p-LQ] торрент скачать бесплатно

Фильмы торрент скачать
Амулет / Amulet (2020) BDRip [H.264 / 720p-LQ]Производство: Великобритания, ОАЭ/Head Gear Films, Kreo Films FZ, Metrol
Жанр: Ужасы, фэнтези
Режиссер: Ромола Гарай

Актеры
Алек Секаряну, Имелда Стонтон, Карла Юри, Аггелики Папоулья, Пол О’Келли, Том Беннетт, Жаклин Робертс, Перри Жакс

Описание

Бывшему участнику военных действий с посттравматическим синдромом по имени Томас некуда податься, поэтому приходится бомжевать в Лондоне. Однажды католическая монахиня предлагает ему пожить в старом доме в компании молодой женщины Магды и её смертельно больной матери, которая заперта на втором этаже. Томас помогает с ремонтом дома, постепенно влюбляется в молодую хозяйку, и ему всё больше кажется, что тут творится что-то зловещее.


Возраст: 18+ (зрителям, достигшим 18 лет. запрещено для детей)
Рейтинг MPAA: R (лицам до 17 лет обязательно присутствие взрослого)
Дата мировой премьеры: 26 января 2020
Дата российской премьеры: 21 ноября 2019, Russian World Vision
Релиз от: LORDKILL
Продолжительность: 01: 39: 38
Качество видео: BDRip
Перевод: Дублированный (iTunes)
Субтитры: Русские (full), английские (Full, SDH)
Видео: AVC/H.264, 1280x640, ~3827 Kbps
Аудио: AC3, 6 ch, 384 Kbps - Русский (iTunes)
General
Unique ID : 28689632524863120150531165047011440293 (0x15956C17BE8D8AAD89D5AD84D6D076A5)
Complete name : F: КИНОРУТОРАмулет.mkv
Format : Matroska
Format version : Version 4
File size : 2.93 GiB
Duration : 1 h 39 min
Overall bit rate : 4 213 kb/s
Movie name : Амулет/Amulet (2020) - #LORDKILL#
Encoded date : UTC 2020-10-24 19: 36: 03
Writing application : mkvmerge v32.0.0 (\'Astral Progressions\') 64-bit
Writing library : libebml v1.3.7 + libmatroska v1.5.0
Video
ID : 1
Format : AVC
Format/Info : Advanced Video Codec
Format profile : High@L4.1
Format settings : CABAC/11 Ref Frames
Format settings, CABAC : Yes
Format settings, Reference : 11 frames
Codec ID : V_MPEG4/ISO/AVC
Duration : 1 h 39 min
Bit rate : 3 827 kb/s
Width : 1 280 pixels
Height : 640 pixels
Display aspect ratio : 2.000
Frame rate mode : Constant
Frame rate : 24.000 FPS
Color space : YUV
Chroma subsampling : 4: 2: 0
Bit depth : 8 bits
Scan type : Progressive
Bits/(Pixel*Frame) : 0.195
Stream size : 2.66 GiB (91%)
Writing library : x264 core 159 r2991 1771b55
Encoding settings : cabac=1/ref=11/deblock=1: -2: -2/analyse=0x3: 0x113/me=umh/subme=9/psy=1/psy_rd=1.00: 0.20/mixed_ref=1/me_range=32/chroma_me=1/trellis=1/8x8dct=1/cqm=0/deadzone=21, 11/fast_pskip=0/chroma_qp_offset=-3/threads=12/lookahead_threads=2/sliced_threads=0/nr=0/decimate=1/interlaced=0/bluray_compat=0/constrained_intra=0/bframes=9/b_pyramid=2/b_adapt=2/b_bias=0/direct=1/weightb=1/open_gop=0/weightp=2/keyint=240/keyint_min=23/scenecut=40/intra_refresh=0/rc=crf/mbtree=0/crf=19.0/qcomp=0.60/qpmin=0/qpmax=69/qpstep=4/ip_ratio=1.40/pb_ratio=1.30/aq=1: 0.80
Default : Yes
Forced : No
Audio
ID : 2
Format : AC-3
Format/Info : Audio Coding 3
Commercial name : Dolby Digital
Codec ID : A_AC3
Duration : 1 h 39 min
Bit rate mode : Constant
Bit rate : 384 kb/s
Channel(s) : 6 channels
Channel layout : L R C LFE Ls Rs
Sampling rate : 48.0 kHz
Frame rate : 31.250 FPS (1536 SPF)
Compression mode : Lossy
Stream size : 274 MiB (9%)
Title : Дубляж (iTunes)
Language : Russian
Service kind : Complete Main
Default : Yes
Forced : Yes
Text #1
ID : 3
Format : UTF-8
Codec ID : S_TEXT/UTF8
Codec ID/Info : UTF-8 Plain Text
Duration : 1 h 27 min
Bit rate : 25 b/s
Count of elements : 428
Stream size : 16.3 KiB (0%)
Title : Full
Language : Russian
Default : No
Forced : No
Text #2
ID : 4
Format : UTF-8
Codec ID : S_TEXT/UTF8
Codec ID/Info : UTF-8 Plain Text
Duration : 1 h 27 min
Bit rate : 16 b/s
Count of elements : 446
Stream size : 10.8 KiB (0%)
Title : Full
Language : English
Default : No
Forced : No
Text #3
ID : 5
Format : UTF-8
Codec ID : S_TEXT/UTF8
Codec ID/Info : UTF-8 Plain Text
Duration : 1 h 32 min
Bit rate : 20 b/s
Count of elements : 613
Stream size : 13.7 KiB (0%)
Title : SDH
Language : English
Default : No
Forced : No
Menu
00: 00: 00.000 : de: Глава 01
00: 08: 29.458 : de: Глава 02
00: 14: 27.125 : de: Глава 03
00: 22: 43.000 : de: Глава 04
00: 30: 18.500 : de: Глава 05
00: 41: 26.917 : de: Глава 06
00: 50: 39.000 : de: Глава 07
00: 59: 14.417 : de: Глава 08
01: 07: 47.375 : de: Глава 09
01: 17: 30.667 : de: Глава 10
01: 26: 46.042 : de: Глава 11
01: 33: 47.500 : de: Глава 12

Скриншоты для ознакомления



Все одноименные релизы в Клубе
Время раздачи: 24/7 (круглосуточно) (до появления первых 3-5 скачавших)
 
Уважаемый посетитель, Вы зашли на сайт как незарегистрированный пользователь. Мы рекомендуем Вам зарегистрироваться либо зайти на сайт под своим именем.

Другие новости по теме:

  • Амулет / Amulet (2020) WEBRip [VO]
  • Амулет / Amulet (2020) WEB-DL [H.264 / 1080p] [DVO]
  • Амулет / Amulet (2020) WEB-DL [H.264 / 1080p]
  • Амулет / Amulet (2020) BDRip [H.264]
  • Амулет / Amulet (2020) BDRemux [H.264 / 1080p]
  • Амулет / Amulet (2020) BDRip [H.264 / 1080p]
  • Amulet of Dreams / Амулет снов (2015) [Ru] Unofficial скачать через торрент бесплатно


  • Информация
    Посетители, находящиеся в группе Гости, не могут оставлять комментарии в данной новости.
    Главная страница | Регистрация | Добавить новость | Новое на сайте Copyright © 2019. bolt.mmix.club All Rights Reserved