Подписывайся на наш канал в Telegram https://t.me/torrentok и получи доступ к торрентам без ограничений!
. bolt.mmix.club
Авторские права
con...@...Показать
Вход на сайт
Логин:
Пароль:
 
Навигация по сайту
Популярные статьи

Торрент трекер | Скачать торрент | Скачать через Торрент | Скачать торрент бесплатно | Скачать торрент без регистрации Фильмы торрент скачать Опасная авантюра (Американский мечтатель) / American Dreamer (2018) WEB-DLRip торрент скачать бесплатно

Опасная авантюра (Американский мечтатель) / American Dreamer (2018) WEB-DLRip торрент скачать бесплатно

Фильмы торрент скачать
Опасная авантюра (Американский мечтатель) / American Dreamer (2018) WEB-DLRipПроизводство: США/Storyland Pictures, Sugar Pictures LA, Old Dominion University
Жанр: Триллер, криминал
Режиссер: Деррик Борте

Актеры
Тэмми Бланчард, Джим Гэффиган, Алехандро Эрнандес, Изабель Арраиса, Робби Джонс, Кертис Лайонс, Брайан К. Лэндис, Эрик Д. Хилл мл., Harrison Fall, Charlie Landis

Описание

После того как Кэм пережил сложный бракоразводный процесс, его жизнь рухнула. Он стал работать обычным таксистом и подрабатывать водителем у мелкого наркоторговца. Еле сводя концы с концами, Кэм в скором времени принимает решение пойти на опасную авантюру и сорвать солидный куш. Но с первых же минут всё идет не по плану.


Рейтинг MPAA: R (лицам до 17 лет обязательно присутствие взрослого)
Дата мировой премьеры: 27 сентября 2018
Цифровой релиз: 22 октября 2020

Продолжительность: 01: 32: 30
Качество видео: WEB-DLRip
Перевод: Дублированный (iTunes)
Субтитры: Отсутствуют
Видео: XviD, 720x304, ~1861 Kbps
Аудио: AC-3, 6 ch, 384 Kbps
Общее
Полное имя : D: NNMОпасная авантюраAmerican.Dreamer.2018.WEB-DLRip.avi
Формат : AVI
Формат/Информация : Audio Video Interleave
Профиль формата : OpenDML
Размер файла : 1, 46 Гбайт
Продолжительность : 1 ч. 32 м.
Общий поток : 2256 Кбит/сек
Название фильма : .ELEKTRI4KA.UNIONGANG.
Программа кодирования : Lavf58.20.100
Видео
Идентификатор : 0
Формат : MPEG-4 Visual
Профиль формата : Advanced Simple@L5
Настройки формата : BVOP1
Параметр BVOP формата : 1
Параметр QPel формата : Нет
Параметр GMC формата : Без точки перехода
Параметр матрицы формата : Default (H.263)
Идентификатор кодека : XVID
Идентификатор кодека/Подсказка : XviD
Продолжительность : 1 ч. 32 м.
Битрейт : 1861 Кбит/сек
Ширина : 720 пикселей
Высота : 304 пикселя
Соотношение сторон : 2, 35: 1
Частота кадров : 24, 000 кадра/сек
Цветовое пространство : YUV
Субдискретизация насыщенности : 4: 2: 0
Битовая глубина : 8 бит
Тип развёртки : Прогрессивная
Метод сжатия : С потерями
Бит/(Пиксели*Кадры) : 0.354
Размер потока : 1, 20 Гбайт (82%)
Заголовок : .ELEKTRI4KA.UNIONGANG.
Библиотека кодирования : XviD 67
Аудио
Идентификатор : 1
Формат : AC-3
Формат/Информация : Audio Coding 3
Коммерческое название : Dolby Digital
Идентификатор кодека : 2000
Продолжительность : 1 ч. 32 м.
Вид битрейта : Постоянный
Битрейт : 384 Кбит/сек
Каналы : 6 каналов
ChannelLayout : L R C LFE Ls Rs
Частота : 48, 0 КГц
Частота кадров : 31, 250 кадров/сек (1536 SPF)
Битовая глубина : 16 бит
Метод сжатия : С потерями
Размер потока : 254 Мбайт (17%)
Выравнивание : Соединение по промежуткам
Продолжительность промежутка : 32 мс. (0, 77 видеокадр)
Заголовок : iTunes
ServiceKind/String : Complete Main

Скриншоты для ознакомления



Все одноименные релизы в Клубе Время раздачи: 24/7 (до первых 3-5 скачавших)
 
Уважаемый посетитель, Вы зашли на сайт как незарегистрированный пользователь. Мы рекомендуем Вам зарегистрироваться либо зайти на сайт под своим именем.

Другие новости по теме:

  • Опасная авантюра (Американский мечтатель) / American Dreamer (2018) WEB-DL [H.264 / 1080p-LQ]


  • Информация
    Посетители, находящиеся в группе Гости, не могут оставлять комментарии в данной новости.
    Главная страница | Регистрация | Добавить новость | Новое на сайте Copyright © 2019. bolt.mmix.club All Rights Reserved