Подписывайся на наш канал в Telegram https://t.me/torrentok и получи доступ к торрентам без ограничений!
. bolt.mmix.club
Авторские права
con...@...Показать
Вход на сайт
Логин:
Пароль:
 
Навигация по сайту
Популярные статьи

Торрент трекер | Скачать торрент | Скачать через Торрент | Скачать торрент бесплатно | Скачать торрент без регистрации Фильмы торрент скачать Ундина / Undine (2020) WEB-DLRip торрент скачать бесплатно

Ундина / Undine (2020) WEB-DLRip торрент скачать бесплатно

Фильмы торрент скачать
Ундина / Undine (2020) WEB-DLRipПроизводство: Германия, Франция/Schramm Film, Les Films du Losange, Zweites Deutsches Fernsehen
Жанр: Драма, мелодрама
Режиссер: Кристиан Петцольд

Актеры
Паула Бер, Франц Роговский, Марьям Заре, Якоб Маченц, Анна Ратте-Полле, Рафаэль Стаховяк, Хосе Баррош, Джулия Франц Рихтер, Глория Эндрес де Оливейра, Энно Требс

Описание

История всепоглощающей любви на грани жизни и смерти – классический сюжет эпохи романтизма – на фоне современного Берлина.
Красавица Ундина знает все об архитектуре Восточного и Западного Берлина, ее рассказами заслушиваются посетители выставки, они пленяют сердце мечтателя Кристофа. Знакомство молодых людей мистическим образом сближает их. Но у Ундины есть тайна – ее прошлое – роковой роман с Йоханнесом, человеком, который ее предал…


Возраст: 16+ (зрителям, достигшим 16 лет)
Дата мировой премьеры: 23 февраля 2020
Дата премьеры в России: 24 сентября 2020

Продолжительность: 01: 29: 28
Качество видео: WEB-DLRip
Перевод: Многоголосый профессиональный (iTunes)
Субтитры: Отсутствуют
Видео: XviD, 74x384, ~1937 Kbps
Аудио: AC3, 6 ch, 384 Kbps
Общее
Полное имя : D: NNMУндинаUndina.2020.WEB-DLRip.avi
Формат : AVI
Формат/Информация : Audio Video Interleave
Размер файла : 1, 46 Гбайт
Продолжительность : 1 ч. 29 м.
Общий поток : 2330 Кбит/сек
Название фильма : Ундина_2020_WEB-DLRip
Программа кодирования : VirtualDubMod 1.5.10.3 |www.virtualdub-fr.org|| (build 2550/release)
Авторское право : порошков
Видео
Идентификатор : 0
Формат : MPEG-4 Visual
Профиль формата : Advanced Simple@L5
Настройки формата : BVOP1/Custom Matrix
Параметр BVOP формата : 1
Параметр QPel формата : Нет
Параметр GMC формата : Без точки перехода
Параметр матрицы формата : Выборочная
Идентификатор кодека : XVID
Идентификатор кодека/Подсказка : XviD
Продолжительность : 1 ч. 29 м.
Битрейт : 1937 Кбит/сек
Ширина : 704 пикселя
Высота : 384 пикселя
Соотношение сторон : 1, 85: 1
Частота кадров : 24, 000 кадра/сек
Цветовое пространство : YUV
Субдискретизация насыщенности : 4: 2: 0
Битовая глубина : 8 бит
Тип развёртки : Прогрессивная
Метод сжатия : С потерями
Бит/(Пиксели*Кадры) : 0.298
Размер потока : 1, 21 Гбайт (83%)
Библиотека кодирования : XviD 73
Аудио
Идентификатор : 1
Формат : AC-3
Формат/Информация : Audio Coding 3
Коммерческое название : Dolby Digital
Идентификатор кодека : 2000
Продолжительность : 1 ч. 29 м.
Вид битрейта : Постоянный
Битрейт : 384 Кбит/сек
Каналы : 6 каналов
ChannelLayout : L R C LFE Ls Rs
Частота : 48, 0 КГц
Частота кадров : 31, 250 кадров/сек (1536 SPF)
Метод сжатия : С потерями
Размер потока : 246 Мбайт (16%)
Выравнивание : Разделение по промежуткам
Продолжительность промежутка : 42 мс. (1, 00 видеокадр)
Время предзагрузки промежутка : 500 мс.
ServiceKind/String : Complete Main

Скриншоты для ознакомления



Все одноименные релизы в Клубе Время раздачи: 24/7 (до первых 3-5 скачавших)
 
Уважаемый посетитель, Вы зашли на сайт как незарегистрированный пользователь. Мы рекомендуем Вам зарегистрироваться либо зайти на сайт под своим именем.

Другие новости по теме:

  • Ундина / Undine (2020) WEB-DL [H.264 / 1080p-LQ]
  • Ундина / Undine (2020) BDRip [H.264 / 720p]
  • Ундина / Undine (2020) BDRip [H.264 / 1080p]
  • Ундина / Undine (2020) BDRemux [H.264 / 1080p]
  • Ундина / Undine (2020) BDRip [H.264 / 720p-LQ]


  • Информация
    Посетители, находящиеся в группе Гости, не могут оставлять комментарии в данной новости.
    Главная страница | Регистрация | Добавить новость | Новое на сайте Copyright © 2019. bolt.mmix.club All Rights Reserved