Подписывайся на наш канал в Telegram https://t.me/torrentok и получи доступ к торрентам без ограничений!
. bolt.mmix.club
Авторские права
con...@...Показать
Вход на сайт
Логин:
Пароль:
 
Навигация по сайту
Популярные статьи

Торрент трекер | Скачать торрент | Скачать через Торрент | Скачать торрент бесплатно | Скачать торрент без регистрации Фильмы торрент скачать Ленинград 46 (2014-2015) WEBRip (сезон 1, серии 1-32 из 32) торрент скачать бесплатно

Ленинград 46 (2014-2015) WEBRip (сезон 1, серии 1-32 из 32) торрент скачать бесплатно

Фильмы торрент скачать
Ленинград 46 (2014-2015) WEBRip (сезон 1, серии 1-32 из 32)Производство: Россия/Триикс Медиа
Жанр: криминал, детектив
Режиссер: Игорь Копылов

Актеры
Сергей Гармаш, Алексей Горбунов, Дмитрий Лебедев, Анна Табанина, Валерий Бояринцев, Михаил Горский, Дмитрий Паламарчук, Евгений Миллер, Александр Аравушкин, Дмитрий Сутырин и др.

Описание

1946-й год, Ленинград. Милиция ведет борьбу с преступностью, накрывшей город после войны. После незаслуженного приговора учитель литературы Данилов потерял все: работу, жену, дочь. Он пытается добиться справедливости и отомстить тем, кто исковеркал его жизнь. Но получается так, что учитель все больше погружается в криминальный мир послевоенного Ленинграда и постепенно превращается в одного из самых умных и опасных преступников.


Возраст: 16+ (зрителям, достигшим 16 лет)
Дата российской премьеры: 23 марта 2015 (НТВ)
Продолжительность: ~00: 46: 00 серия
Качество видео: WEBRip
Видео: Xvid, 720x400 (16: 9), ~1132 kbps
Аудио: AC3, 2 ch, 192 kbps
General
Complete name : F: Мои сериалыLeningrad_46_S1_1-32iz32_2015_XviD_WEBRip1.Музыкант.(1 сер.).avi
Format : AVI
Format/Info : Audio Video Interleave
File size : 446 MiB
Duration : 46 min 45 s
Overall bit rate : 1 333 kb/s
Writing library : VirtualDub2 build 44282/release
Video
ID : 0
Format : MPEG-4 Visual
Format profile : Advanced Simple@L5
Format settings : BVOP2
Format settings, BVOP : 2
Format settings, QPel : No
Format settings, GMC : No warppoints
Format settings, Matrix : Default (H.263)
Codec ID : XVID
Codec ID/Hint : XviD
Duration : 46 min 45 s
Bit rate : 1 132 kb/s
Width : 720 pixels
Height : 400 pixels
Display aspect ratio : 16: 9
Frame rate : 25.000 FPS
Color space : YUV
Chroma subsampling : 4: 2: 0
Bit depth : 8 bits
Scan type : Progressive
Compression mode : Lossy
Bits/(Pixel*Frame) : 0.157
Stream size : 378 MiB (85%)
Writing library : XviD 69
Audio
ID : 1
Format : AC-3
Format/Info : Audio Coding 3
Commercial name : Dolby Digital
Codec ID : 2000
Duration : 46 min 45 s
Bit rate mode : Constant
Bit rate : 192 kb/s
Channel(s) : 2 channels
Channel layout : L R
Sampling rate : 48.0 kHz
Frame rate : 31.250 FPS (1536 SPF)
Bit depth : 16 bits
Compression mode : Lossy
Stream size : 64.2 MiB (14%)
Alignment : Aligned on interleaves
Interleave, duration : 40 ms (1.00 video frame)
Interleave, preload duration : 512 ms
Service kind : Complete Main

Скриншоты для ознакомления



Все одноименные релизы в Клубе
Время раздачи: с 07: 00 до 23: 00 (до появления первых 3-5 скачавших)
 
Уважаемый посетитель, Вы зашли на сайт как незарегистрированный пользователь. Мы рекомендуем Вам зарегистрироваться либо зайти на сайт под своим именем.

Другие новости по теме:

  • Ленинград / Вояж (2017) WEBRip [H.264 / 1080p-LQ]
  • Ленинград - Live (СК Олимпийский, Москва, 2017.12.16) WEBRip [H.264 / 1080p-LQ]
  • Ленинград / Не Париж (2018) WEBRip [H.264 / 1080p-LQ]
  • Вадим Галыгин и гр. Ленинград / 8 Марта (2018) WEBRip [H.264 / 1080p-LQ]
  • Ленинград (2007) WEBRip (серии 1-4 из 4)


  • Информация
    Посетители, находящиеся в группе Гости, не могут оставлять комментарии в данной новости.
    Главная страница | Регистрация | Добавить новость | Новое на сайте Copyright © 2019. bolt.mmix.club All Rights Reserved