Подписывайся на наш канал в Telegram https://t.me/torrentok и получи доступ к торрентам без ограничений!
. bolt.mmix.club
Авторские права
con...@...Показать
Вход на сайт
Логин:
Пароль:
 
Навигация по сайту
Популярные статьи

Торрент трекер | Скачать торрент | Скачать через Торрент | Скачать торрент бесплатно | Скачать торрент без регистрации Фильмы торрент скачать Не пойман - не вор / Inside Man (2006) BDRip [H.265 / 1080p] [10-bit] торрент скачать бесплатно

Не пойман - не вор / Inside Man (2006) BDRip [H.265 / 1080p] [10-bit] торрент скачать бесплатно

Фильмы торрент скачать
Не пойман - не вор / Inside Man (2006) BDRip [H.265 / 1080p] [10-bit]Производство: США/Universal Pictures, Imagine Entertainment, 40 Acres A Mule Filmworks
Жанр: Триллер, драма, криминал, детектив
Режиссер: Спайк Ли

Актеры
Дензел Вашингтон, Клайв Оуэн, Джоди Фостер, Кристофер Пламмер, Уиллем Дефо, Чиветел Эджиофор, Карлос Андрес Гомез, Ким Директор, Джеймс Рэнсон, Берни Рейчел

Описание
История крутого полицейского, детектива Фрейзера, который сталкивается на узкой дорожке с хитрым грабителем банков Далтоном. Их противостояние выливается в напряженную драму с захватом заложников. Появления брокера Мэдлин вносит еще больше хаоса и нестабильности в и без того чрезвычайно хрупкую ситуацию.


Возраст: 16+ (зрителям, достигшим 16 лет)
Рейтинг MPAA: R (лицам до 17 лет обязательно присутствие взрослого)
Релиз от: Spartanec (HEVC-CLUB)
Продолжительность: 02: 08: 36
Качество видео: BDRip
Перевод: Дублированный (Лицензия)
Субтитры: Русские, английские
Видео: HEVC/H.265, 1920x816, ~7127 Kbps
Аудио 1: AC3, 6 ch, 448 Kbps - Русский, дублированный
Аудио 2: AC3, 6 ch, 640 Kbps - Английский
==============================
x265 info: frame I: 1668, Avg QP: 17.42 kb/s: 25746.08
x265 info: frame P: 37126, Avg QP: 18.98 kb/s: 15299.26
x265 info: frame B: 146219, Avg QP: 21.33 kb/s: 4839.21
x265 info: Weighted P-Frames: Y: 3.2% UV: 2.6%
x265 info: Weighted B-Frames: Y: 2.3% UV: 1.7%
x265 info: consecutive B-frames: 6.3% 3.5% 6.3% 38.1% 7.3% 25.0% 4.2% 7.9% 0.5% 0.5% 0.3%
encoded 185013 frames in 274536.88s (0.67 fps), 7126.69 kb/s, Avg QP: 20.82
==============================
Общее
Уникальный идентификатор : 177251786078377640193333183409880534854 (0x855973C6AF6EA3B6882E7340D25F8F46)
Полное имя : R: Не пойман - не вор (2006) BDRip 1080p HEVC 10bit by Spartanec.mkv
Формат : Matroska
Версия формата : Version 4/Version 2
Размер файла : 7, 38 Гбайт
Продолжительность : 2 ч. 8 м.
Общий поток : 8218 Кбит/сек
Название фильма : by Spartanec
Дата кодирования : UTC 2020-10-23 10: 05: 15
Программа кодирования : mkvmerge v7.0.0 (\'Where We Going\') 64bit built on Jun 9 2014 15: 16: 27
Библиотека кодирования : libebml v1.3.0 + libmatroska v1.4.1/Lavf57.71.100
Обложка : Yes
Attachments : cover.jpg
ENCODING_INFO : MATROSKA, WEBM MKV 1080p 10-bit/DTS-HD MA AC3 CBR 640kbps/DTS AC3 CBR 640kbps
Язык : und
Видео
Идентификатор : 1
Формат : HEVC
Формат/Информация : High Efficiency Video Coding
Профиль формата : Main10@L4.1@High
Идентификатор кодека : V_MPEGH/ISO/HEVC
Продолжительность : 2 ч. 8 м.
Битрейт : 7127 Кбит/сек
Ширина : 1920 пикселей
Высота : 816 пикселей
Соотношение сторон : 2, 35: 1
Режим частоты кадров : Постоянный
Частота кадров : 23, 976 (23976/1000) кадра/сек
Частота кадров в оригинале : 23, 976 (24000/1001) кадра/сек
Цветовое пространство : YUV
Субдискретизация насыщенности : 4: 2: 0
Битовая глубина : 10 бит
Бит/(Пиксели*Кадры) : 0.190
Размер потока : 6, 40 Гбайт (87%)
Заголовок : Spartanec
Библиотека кодирования : x265 3.4+12-g9103319fc: WindowsGCC 10.2.064 bit 10bit
Настройки программы : cpuid=1111039/frame-threads=4/numa-pools=16/wpp/no-pmode/no-pme/no-psnr/no-ssim/log-level=2/input-csp=1/input-res=1920x816/interlace=0/total-frames=185013/level-idc=41/high-tier=1/uhd-bd=0/ref=5/no-allow-non-conformance/no-repeat-t_heads/annexb/no-aud/no-hrd/info/hash=0/no-temporal-layers/open-gop/min-keyint=23/keyint=240/gop-lookahead=0/bframes=10/b-adapt=2/b-pyramid/bframe-bias=0/rc-lookahead=60/lookahead-slices=1/scenecut=40/hist-scenecut=0/radl=0/no-splice/no-intra-refresh/ctu=32/min-cu-size=8/rect/amp/max-tu-size=32/tu-inter-depth=4/tu-intra-depth=4/limit-tu=1/rdoq-level=1/dynamic-rd=0.00/no-ssim-rd/signhide/no-tskip/nr-intra=0/nr-inter=0/no-constrained-intra/no-strong-intra-smoothing/max-merge=5/limit-refs=0/no-limit-modes/me=3/subme=7/merange=57/temporal-mvp/no-frame-dup/no-hme/weightp/weightb/no-analyze-src-pics/deblock=-2: -2/no-sao/no-sao-non-deblock/rd=6/selective-sao=0/no-early-skip/no-rskip/no-fast-intra/no-tskip-fast/no-cu-lossless/b-intra/no-splitrd-skip/rdpenalty=0/psy-rd=2.00/psy-rdoq=1.00/no-rd-refine/no-lossless/cbqpoffs=0/crqpoffs=0/rc=crf/crf=20.3/qcomp=0.70/qpstep=4/stats-write=0/stats-read=0/vbv-maxrate=50000/vbv-bufsize=50000/vbv-init=0.9/crf-max=0.0/crf-min=0.0/ipratio=1.40/pbratio=1.30/aq-mode=2/aq-strength=1.00/no-cutree/zone-count=0/no-strict-cbr/qg-size=32/no-rc-grain/qpmax=69/qpmin=0/no-const-vbv/sar=1/overscan=0/videoformat=5/range=0/colorprim=1/transfer=1/colormatrix=1/chromaloc=0/display-window=0/cll=0, 0/min-luma=0/max-luma=1023/log2-max-poc-lsb=8/vui-timing-info/vui-hrd-info/slices=1/no-opt-qp-pps/no-opt-ref-list-length-pps/no-multi-pass-opt-rps/scenecut-bias=0.05/hist-threshold=0.01/no-opt-cu-delta-qp/no-aq-motion/no-hdr10/no-hdr10-opt/no-dhdr10-opt/no-idr-recovery-sei/analysis-reuse-level=0/analysis-save-reuse-level=0/analysis-load-reuse-level=0/scale-factor=0/refine-intra=0/refine-inter=0/refine-mv=0/refine-ctu-distortion=0/no-limit-sao/ctu-info=0/no-lowpass-dct/refine-analysis-type=0/copy-pic=1/max-ausize-factor=1.0/no-dynamic-refine/no-single-sei/no-hevc-aq/no-svt/no-field/qp-adaptation-range=1.00/no-scenecut-aware-qpconformance-window-offsets/right=0/bottom=0/decoder-max-rate=0
Язык : English
Default : Да
Forced : Нет
Цветовой диапазон : Limited
Основные цвета : BT.709
Характеристики трансфера : BT.709
Коэффициенты матрицы : BT.709
Аудио #1
Идентификатор : 2
Формат : AC-3
Формат/Информация : Audio Coding 3
Идентификатор кодека : A_AC3
Продолжительность : 2 ч. 8 м.
Вид битрейта : Постоянный
Битрейт : 448 Кбит/сек
Каналы : 6 каналов
Расположение каналов : Front: L C R, Side: L R, LFE
Частота : 48, 0 КГц
Частота кадров : 31, 250 кадров/сек (1536 SPF)
Битовая глубина : 16 бит
Метод сжатия : С потерями
Размер потока : 412 Мбайт (5%)
Заголовок : Дубляж
Язык : Russian
ServiceKind/String : Complete Main
Default : Да
Forced : Да
Аудио #2
Идентификатор : 5
Формат : AC-3
Формат/Информация : Audio Coding 3
Идентификатор кодека : A_AC3
Продолжительность : 2 ч. 8 м.
Вид битрейта : Постоянный
Битрейт : 640 Кбит/сек
Каналы : 6 каналов
Расположение каналов : Front: L C R, Side: L R, LFE
Частота : 48, 0 КГц
Частота кадров : 31, 250 кадров/сек (1536 SPF)
Битовая глубина : 16 бит
Метод сжатия : С потерями
Размер потока : 589 Мбайт (8%)
Заголовок : Оригинал
Язык : English
ServiceKind/String : Complete Main
Default : Нет
Forced : Нет
Текст #1
Идентификатор : 3
Формат : UTF-8
Идентификатор кодека : S_TEXT/UTF8
Идентификатор кодека/Информация : UTF-8 Plain Text
Продолжительность : 2 ч. 2 м.
Битрейт : 124 бит/сек
ElementCount : 1880
Размер потока : 111 Кбайт (0%)
Язык : Russian
Default : Да
Forced : Да
Текст #2
Идентификатор : 4
Формат : UTF-8
Идентификатор кодека : S_TEXT/UTF8
Идентификатор кодека/Информация : UTF-8 Plain Text
Продолжительность : 2 ч. 2 м.
Битрейт : 86 бит/сек
ElementCount : 1958
Размер потока : 77, 0 Кбайт (0%)
Язык : English
Default : Нет
Forced : Нет
 
Уважаемый посетитель, Вы зашли на сайт как незарегистрированный пользователь. Мы рекомендуем Вам зарегистрироваться либо зайти на сайт под своим именем.

Другие новости по теме:

  • Не пойман – не вор / Inside Man (2006) BDRip скачать через торрент бесплатно
  • Не пойман – не вор / Inside Man (2006) BDRip [H.265 / 1080p] [10-bit]
  • Не пойман – не вор / Inside Man (2006) WEB-DL [H.264 / 1080p] [Open Matte]


  • Информация
    Посетители, находящиеся в группе Гости, не могут оставлять комментарии в данной новости.
    Главная страница | Регистрация | Добавить новость | Новое на сайте Copyright © 2019. bolt.mmix.club All Rights Reserved