Подписывайся на наш канал в Telegram https://t.me/torrentok и получи доступ к торрентам без ограничений!
. bolt.mmix.club
Авторские права
con...@...Показать
Вход на сайт
Логин:
Пароль:
 
Навигация по сайту
Популярные статьи

Торрент трекер | Скачать торрент | Скачать через Торрент | Скачать торрент бесплатно | Скачать торрент без регистрации Фильмы торрент скачать Агата и сыск. Рулетка судьбы (2020) SATRip (сезон 2, серии 1-4 из 4) торрент скачать бесплатно

Агата и сыск. Рулетка судьбы (2020) SATRip (сезон 2, серии 1-4 из 4) торрент скачать бесплатно

Фильмы торрент скачать
Агата и сыск. Рулетка судьбы (2020) SATRip (сезон 2, серии 1-4 из 4)Производство: Россия/Кинокомпания Зебра
Жанр: детектив, история, экранизация
Режиссер: Владимир Койфман

Актеры
Дарья Ленда, Константин Крюков, Александр Половцев, Борис Хвошнянский, Егор Бакулин, Константин Шелестун, Светлана Обидина, Татьяна Полонская и др.

Описание

По мотивам одноименного романа Антона Чижа.
Конец 19 века. Российскими законами азартные игры запрещены, но ведь всегда найдутся желающие закон нарушить! Приехавшая в Москву Агата вновь встречается с молодым сыщиком Алексеем Пушкиным. И снова их встреча переплетается с чередой кровавых преступлений, на этот раз связанных с рулеткой. Один за другим погибают удачливые игроки, получившие невероятный выигрыш. Кто стоит за этими убийствами? И существует ли в действительности тайная формула игры, позволяющая обыграть судьбу?
Дата российской премьеры: 19 сентября 2020 (ТВЦ)
Релиз от: 7turza
Продолжительность: ~00: 45: 00 серия
Качество видео: SATRip
Видео: Xvid, 720x400 (16: 9), ~1900 Kbps
Аудио: MP3, 2 ch, 192 Kbps
Общее
Полное имя : D: Агата.и.сыск.S02.Рулетка.Судьбы.XviD.2020.SATRip.7turza™1.Агата.и.сыск.S02.Рулетка.Судьбы.7turza™.avi
Формат : AVI
Формат/Информация : Audio Video Interleave
Размер файла : 625 Мбайт
Продолжительность : 45 м. 59 с.
Общий поток : 1898 Кбит/сек
Название фильма : S02 E01 # from 7turza #
Программа кодирования : Lavf58.45.100
Видео
Идентификатор : 0
Формат : MPEG-4 Visual
Профиль формата : Advanced Simple@L5
Настройки формата : BVOP1
Параметр BVOP формата : 1
Параметр QPel формата : Нет
Параметр GMC формата : Без точки перехода
Параметр матрицы формата : Default (H.263)
Идентификатор кодека : XVID
Идентификатор кодека/Подсказка : XviD
Продолжительность : 45 м. 59 с.
Битрейт : 1694 Кбит/сек
Ширина : 720 пикселей
Высота : 400 пикселей
Соотношение сторон : 16: 9
Частота кадров : 25, 000 кадров/сек
Цветовое пространство : YUV
Субдискретизация насыщенности : 4: 2: 0
Битовая глубина : 8 бит
Тип развёртки : Прогрессивная
Метод сжатия : С потерями
Бит/(Пиксели*Кадры) : 0.235
Размер потока : 557 Мбайт (89%)
Библиотека кодирования : XviD 69
Аудио
Идентификатор : 1
Формат : MPEG Audio
Версия формата : Version 1
Профиль формата : Layer 3
Настройки формата : Joint stereo/MS Stereo
Идентификатор кодека : 55
Идентификатор кодека/Подсказка : MP3
Продолжительность : 45 м. 59 с.
Вид битрейта : Постоянный
Битрейт : 192 Кбит/сек
Каналы : 2 канала
Частота : 48, 0 КГц
Метод сжатия : С потерями
Размер потока : 63, 2 Мбайт (10%)
Выравнивание : Соединение по промежуткам
Продолжительность промежутка : 24 мс. (0, 60 видеокадр)
Библиотека кодирования : LAME3.100ªªªªªªªªª

Скриншоты для ознакомления



Все одноименные релизы в Клубе
Время раздачи: 24/7 (мультитрекерная раздача) (до появления первых 3-5 скачавших)
 
Уважаемый посетитель, Вы зашли на сайт как незарегистрированный пользователь. Мы рекомендуем Вам зарегистрироваться либо зайти на сайт под своим именем.

Другие новости по теме:

  • Агата и сыск. Королева брильянтов (2019) WEB-DLRip (сезон 1, серии 1-4 из 4)
  • Агата и сыск. Королева брильянтов (2019) SATRip [H.264] (сезон 1,серии 1-4 из 4)


  • Информация
    Посетители, находящиеся в группе Гости, не могут оставлять комментарии в данной новости.
    Главная страница | Регистрация | Добавить новость | Новое на сайте Copyright © 2019. bolt.mmix.club All Rights Reserved