Подписывайся на наш канал в Telegram https://t.me/torrentok и получи доступ к торрентам без ограничений!
. bolt.mmix.club
Авторские права
con...@...Показать
Вход на сайт
Логин:
Пароль:
 
Навигация по сайту
Популярные статьи

Торрент трекер | Скачать торрент | Скачать через Торрент | Скачать торрент бесплатно | Скачать торрент без регистрации Фильмы торрент скачать День благодарения / Thanksgiving (2018-2019) HDTVRip (сезон 1, серии 1-3 из 3) ViruseProject [AD] торрент скачать бесплатно

День благодарения / Thanksgiving (2018-2019) HDTVRip (сезон 1, серии 1-3 из 3) ViruseProject [AD] торрент скачать бесплатно

Фильмы торрент скачать
День благодарения / Thanksgiving (2018-2019) HDTVRip (сезон 1, серии 1-3 из 3) ViruseProject [AD]Производство: Франция
Жанр: триллер, драма
Режиссер: Николас Саада

Актеры
Грегуар Колен, Эвелин Брошу, Артур Игуаль, Фридерик Эпо, Стефан Бак, Доминик Гулд, Клер Тран, Стивен Ри, Фредерик Вайсман, Александр Стайгер и д.р.

Описание

Француз Винсент и американка Луиза живут вместе уже 15 лет, у них двое детей и. казалось бы, это вполне благополучная семья. Но за внешним благополучием скрывается серьезная драма, поскольку оба ведут двойную жизнь, тщательно скрывая её друг от друга. И это вовсе не супружеские измены.


Релиз от: ViruseProject
Продолжительность: ~00: 45: 00 серии
Качество видео: HDTVRip
Перевод: Двуголосый профессиональный (ViruseProject)
Субтитры: Русские (отдельными файлами)
Реклама: Присутствуют видео, аудио вставки рекламы
Видео: XviD, 640x352 (16: 9), ~1500 Kbps
Аудио #1: MP3, 2 ch, 128 Kbps - русский
Аудио #2: MP3, 2 ch, 128 Kbps - французский
Общее
Полное имя : F: ОЗВУЧКА888-ЗАЛИВ-888Thanksgiving.S01.ViruseProjectThanksgiving.S01.400p.ViruseProjectThanksgiving.S01E01.400p.HDTVRip.ViruseProject.avi
Формат : AVI
Формат/Информация : Audio Video Interleave
Размер файла : 624 Мбайт
Продолжительность : 49 м. 17 с.
Режим общего битрейта : Переменный
Общий поток : 1 770 Кбит/сек
Программа кодирования : VirtualDubMod 1.5.10.2 (build 2540/release)
Библиотека кодирования : VirtualDubMod build 2540/release
Видео
Идентификатор : 0
Формат : MPEG-4 Visual
Профиль формата : Advanced Simple@L5
Настройки формата : BVOP1
Параметр BVOP формата : 1
Параметр QPel формата : Нет
Параметр GMC формата : Без точки перехода
Параметр матрицы формата : Default (MPEG)
Идентификатор кодека : XVID
Идентификатор кодека/Подсказка : XviD
Продолжительность : 49 м. 17 с.
Битрейт : 1 500 Кбит/сек
Ширина : 640 пикселей
Высота : 352 пикселя
Соотношение сторон : 16: 9
Частота кадров : 25, 000 кадров/сек
Цветовое пространство : YUV
Субдискретизация насыщенности : 4: 2: 0
Битовая глубина : 8 бит
Тип развёртки : Прогрессивная
Метод сжатия : С потерями
Бит/(Пиксели*Кадры) : 0.266
Размер потока : 529 Мбайт (85%)
Библиотека кодирования : XviD 67
Аудио #1
Идентификатор : 1
Формат : MPEG Audio
Версия формата : Version 1
Профиль формата : Layer 3
Настройки формата : Joint stereo/MS Stereo
Идентификатор кодека : 55
Идентификатор кодека/Подсказка : MP3
Продолжительность : 49 м. 17 с.
Вид битрейта : Переменный
Битрейт : 128 Кбит/сек
Каналы : 2 канала
Частота : 48, 0 КГц
Частота кадров : 41, 667 кадра/сек (1152 SPF)
Метод сжатия : С потерями
Размер потока : 45, 1 Мбайт (7%)
Выравнивание : Соединение по промежуткам
Продолжительность промежутка : 40 мс. (1, 00 видеокадр)
Время предзагрузки промежутка : 504 мс.
Аудио #2
Идентификатор : 2
Формат : MPEG Audio
Версия формата : Version 1
Профиль формата : Layer 3
Настройки формата : Joint stereo/MS Stereo
Идентификатор кодека : 55
Идентификатор кодека/Подсказка : MP3
Продолжительность : 49 м. 17 с.
Вид битрейта : Постоянный
Битрейт : 128 Кбит/сек
Каналы : 2 канала
Частота : 48, 0 КГц
Метод сжатия : С потерями
Размер потока : 45, 1 Мбайт (7%)
Выравнивание : Разделение по промежуткам
Продолжительность промежутка : 40 мс. (1, 00 видеокадр)
Время предзагрузки промежутка : 500 мс.
Библиотека кодирования : LAME3.100

Скриншоты для ознакомления



Все одноименные релизы в Клубе
Время раздачи: с 10: 00 до 24: 00 (до появления первых 3-5 скачавших)
 
Уважаемый посетитель, Вы зашли на сайт как незарегистрированный пользователь. Мы рекомендуем Вам зарегистрироваться либо зайти на сайт под своим именем.

Другие новости по теме:

  • Обзор. Чемпионат Европы 2016. Отборочный турнир. 9 тур. 2-й день. 3-й день. Обзор тура. (2015) HDTVRip [H.264 / 720p-LQ] скачать через торрент бесплатно
  • Последний москаль. Судный День / Останній моcкаль. Судний День (2016) WEB-DLRip [H.264 / 720p-LQ] (сезон 2, серии 1-8 из 16) (обновляемая)
  • Последний москаль. Судный День / Останній моcкаль. Судний День (2016) WEB-DLRip (сезон 2, серии 1-8 из 16) (обновляемая)
  • Последний москаль. Судный День / Останній моcкаль. Судний День (2016) WEB-DLRip [H.264 / 1080p-LQ] (сезон 2, серии 1-8 из 16) (обновляемая)
  • Валентин Черных - День приезда - день отъезда (1978) TVRip (2 части) (Театр им. Моссовета)
  • Шумный день (1960) DVDRip
  • День Ангела (1968) DVDRip [H.264]
  • Александр Зорин | От крестин до похорон - один день (2010) [PDF]


  • Информация
    Посетители, находящиеся в группе Гости, не могут оставлять комментарии в данной новости.
    Главная страница | Регистрация | Добавить новость | Новое на сайте Copyright © 2019. bolt.mmix.club All Rights Reserved