Подписывайся на наш канал в Telegram https://t.me/torrentok и получи доступ к торрентам без ограничений!
. bolt.mmix.club
Авторские права
con...@...Показать
Вход на сайт
Логин:
Пароль:
 
Навигация по сайту
Популярные статьи

Торрент трекер | Скачать торрент | Скачать через Торрент | Скачать торрент бесплатно | Скачать торрент без регистрации Фильмы торрент скачать Вижу-знаю (2016) WEB-DL [H.264 / 1080p-LQ] (серии 1-24 из 24) торрент скачать бесплатно

Вижу-знаю (2016) WEB-DL [H.264 / 1080p-LQ] (серии 1-24 из 24) торрент скачать бесплатно

Фильмы торрент скачать
Вижу-знаю (2016) WEB-DL [H.264 / 1080p-LQ] (серии 1-24 из 24)Производство: Россия/Киностудия Медведь
Жанр: криминал, боевик
Режиссер: Алексей Луканев, Эльдар Салаватов

Актеры
Анна Слю, Сергей Горобченко, Кирилл Ковбас, Руслан Ягудин, Максим Щёголев, Алексей Викторов, Сергей Шнырёв, Александр Хованский, Денис Дружинин, Ольга Михайлова и др.

Описание

Оперативные сотрудники одного из отделов полиции ежедневно идут по следу опасных преступников. Опера сталкиваются с жестокими бандитами и раскрывают запутанные комбинации, придуманные уголовниками для сокрытия преступлений. Но каждый из полицейских отдела знает, что рядом всегда надежное плечо коллеги.


Возраст: 16+ (зрителям, достигшим 16 лет)
Продолжительность: ~00: 45: 00 серия
Качество видео: WEB-DL
Видео: AVC/H.264, 1920x1072 (16: 9), ~4500 Kbps
Аудио: AC3, 2 ch, 192 Kbps
General
Unique ID : 247706619496157714202395159321616577753 (0xBA5A8F415C0F7C4A8F05AA1A2ECBF4D9)
Complete name : Вижу-знаю (01 сер.) - web-dl1080p.mkv
Format : Matroska
Format version : Version 2
File size : 1.49 GiB
Duration : 45 min 40 s
Overall bit rate mode : Variable
Overall bit rate : 4 676 kb/s
Encoded date : UTC 2020-08-26 20: 08: 38
Writing application : mkvmerge v7.8.0 (\'River Man\') 32bit built on Apr 3 2015 12: 11: 22
Writing library : libebml v1.3.1 + libmatroska v1.4.2
Video
ID : 1
Format : AVC
Format/Info : Advanced Video Codec
Format profile : High@L4
Format settings : CABAC/1 Ref Frames
Format settings, CABAC : Yes
Format settings, Reference : 1 frame
Format settings, GOP : M=1, N=50
Codec ID : V_MPEG4/ISO/AVC
Duration : 45 min 40 s
Bit rate mode : Variable
Bit rate : 4 500 kb/s
Width : 1 920 pixels
Height : 1 072 pixels
Display aspect ratio : 16: 9
Frame rate mode : Constant
Frame rate : 25.000 FPS
Color space : YUV
Chroma subsampling : 4: 2: 0
Bit depth : 8 bits
Scan type : Progressive
Bits/(Pixel*Frame) : 0.087
Stream size : 1.43 GiB (96%)
Default : Yes
Forced : No
Audio
ID : 2
Format : AC-3
Format/Info : Audio Coding 3
Commercial name : Dolby Digital
Codec ID : A_AC3
Duration : 45 min 40 s
Bit rate mode : Constant
Bit rate : 192 kb/s
Channel(s) : 2 channels
Channel layout : L R
Sampling rate : 44.1 kHz
Frame rate : 28.711 FPS (1536 SPF)
Compression mode : Lossy
Stream size : 62.7 MiB (4%)
Service kind : Complete Main
Default : Yes
Forced : No

Скриншоты для ознакомления



Все одноименные релизы в Клубе
Время раздачи: 24/7 (мультитрекерная раздача)
 
Уважаемый посетитель, Вы зашли на сайт как незарегистрированный пользователь. Мы рекомендуем Вам зарегистрироваться либо зайти на сайт под своим именем.

Другие новости по теме:

  • Вижу-знаю (2016) SATRip [H.264] (1-6 серии из 24) (Обновляемая)
  • Вижу-знаю (2016) HDTVRip (серии 1-24 из 24)


  • Информация
    Посетители, находящиеся в группе Гости, не могут оставлять комментарии в данной новости.
    Главная страница | Регистрация | Добавить новость | Новое на сайте Copyright © 2019. bolt.mmix.club All Rights Reserved