Подписывайся на наш канал в Telegram https://t.me/torrentok и получи доступ к торрентам без ограничений!
. bolt.mmix.club
Авторские права
con...@...Показать
Вход на сайт
Логин:
Пароль:
 
Навигация по сайту
Популярные статьи

Торрент трекер | Скачать торрент | Скачать через Торрент | Скачать торрент бесплатно | Скачать торрент без регистрации Фильмы торрент скачать СеняФедя (2020) WEB-DLRip (сезон 4, серии 1-3 из 17) (обновляемая) торрент скачать бесплатно

СеняФедя (2020) WEB-DLRip (сезон 4, серии 1-3 из 17) (обновляемая) торрент скачать бесплатно

Фильмы торрент скачать
СеняФедя (2020) WEB-DLRip (сезон 4, серии 1-3 из 17) (обновляемая)Производство: Россия/PICK UP FILM по заказу телеканала СТС
Жанр: комедия
Режиссер: Юрий Владовский

Актеры
Сергей Лавыгин, Михаил Тарабукин, Анна Бегунова, Ирина Аугшкап, Леся Кудряшова, Кристина Юдичева, Арина Полонская, Алексей Старченко, Андрей Трушин, Галина Коньшина и др.

Описание

СеняФедя 4 сезон любимого сериала — продолжение истории двух поваров Сени и Феди, которые каждый раз попадают в смешные и неловкие ситуации. Эти герои уже всем известны по сериалу Кухня, где они также работали в ресторане Клод Моне, а их шефом был — неуравновешенный профессионал своего дела — Виктор Баринов. Однако теперь Сеня и Федя решили уйти из под опеки шефа и открыть свой бизнес — закусочную на колесах. Герои даже не могли представить, каково это иметь свое дело и отвечать за него самим, без какой-либо помощи. Несмотря на то, что они всегда попадают в какие-то непростые истории, но с помощью юмора они могут преодолеть если не все, то многое…


Возраст: 16+ (зрителям, достигшим 16 лет)
Релиз от: 25Kuzmich
Продолжительность: ~00: 25: 00 серия
Качество видео: WEB-DLRip
Видео: Xvid, 720x400 (16: 9), ~1760 Kbps
Аудио: AC3, 2 ch, 192 Kbps
Общее
Полное имя : G: SenyaFedya.S04.WEB-DLRip.25KuzmichSenyaFedya.s04e01.WEB-DLRip.25Kuzmich.avi
Формат : AVI
Формат/Информация : Audio Video Interleave
Размер файла : 350 Мбайт
Продолжительность : 24 м. 57 с.
Общий поток : 1 963 Кбит/сек
Программа кодирования : VirtualDubMod 1.5.10.3 |www.virtualdub-fr.org|| (build 2550/release)
Библиотека кодирования : VirtualDubMod build 2550/release
Видео
Идентификатор : 0
Формат : MPEG-4 Visual
Профиль формата : Advanced Simple@L5
Настройки формата : BVOP1
Параметр BVOP формата : 1
Параметр QPel формата : Нет
Параметр GMC формата : Без точки перехода
Параметр матрицы формата : Default (MPEG)
Идентификатор кодека : XVID
Идентификатор кодека/Подсказка : XviD
Продолжительность : 24 м. 57 с.
Битрейт : 1 761 Кбит/сек
Ширина : 720 пикселей
Высота : 400 пикселей
Соотношение сторон : 16: 9
Частота кадров : 25, 000 кадров/сек
Цветовое пространство : YUV
Субдискретизация насыщенности : 4: 2: 0
Битовая глубина : 8 бит
Тип развёртки : Прогрессивная
Метод сжатия : С потерями
Бит/(Пиксели*Кадры) : 0.245
Размер потока : 314 Мбайт (90%)
Библиотека кодирования : XviD 73
Аудио
Идентификатор : 1
Формат : AC-3
Формат/Информация : Audio Coding 3
Коммерческое название : Dolby Digital
Идентификатор кодека : 2000
Продолжительность : 24 м. 57 с.
Вид битрейта : Постоянный
Битрейт : 192 Кбит/сек
Каналы : 2 канала
Channel layout : L R
Частота : 48, 0 КГц
Частота кадров : 31, 250 кадров/сек (1536 SPF)
Метод сжатия : С потерями
Размер потока : 34, 3 Мбайт (10%)
Выравнивание : Разделение по промежуткам
Продолжительность промежутка : 40 мс. (1, 00 видеокадр)
Время предзагрузки промежутка : 500 мс.
Service kind : Complete Main

Скриншоты для ознакомления



Все одноименные релизы в Клубе
Время раздачи: 24/7 (мультитрекерная раздача) (до появления первых 3-5 скачавших)
 
Уважаемый посетитель, Вы зашли на сайт как незарегистрированный пользователь. Мы рекомендуем Вам зарегистрироваться либо зайти на сайт под своим именем.

Другие новости по теме:

  • СеняФедя (2019) WEB-DLRip (сезон 2, серии 1-3 из 13) (Обновляемая)
  • СеняФедя (2019) WEB-DLRip [H.264] (сезон 2, серии 1-2 из 13) (Обновляемая)
  • #СеняФедя (2019) WEB-DLRip (сезон 3, серии 1-3 из 12) (обновляемая)


  • Информация
    Посетители, находящиеся в группе Гости, не могут оставлять комментарии в данной новости.
    Главная страница | Регистрация | Добавить новость | Новое на сайте Copyright © 2019. bolt.mmix.club All Rights Reserved