Подписывайся на наш канал в Telegram https://t.me/torrentok и получи доступ к торрентам без ограничений!
. bolt.mmix.club
Авторские права
con...@...Показать
Вход на сайт
Логин:
Пароль:
 
Навигация по сайту
Популярные статьи

Торрент трекер | Скачать торрент | Скачать через Торрент | Скачать торрент бесплатно | Скачать торрент без регистрации Фильмы торрент скачать Ольга (2020) WEB-DL [H.264 / 720p-LQ] (сезон 4, серии 1-2 из ) (обновляемая) торрент скачать бесплатно

Ольга (2020) WEB-DL [H.264 / 720p-LQ] (сезон 4, серии 1-2 из ) (обновляемая) торрент скачать бесплатно

Фильмы торрент скачать
Ольга (2020) WEB-DL [H.264 / 720p-LQ] (сезон 4, серии 1-2 из ) (обновляемая)Производство: Россия/Good Story Media
Жанр: Комедия
Режиссер: Алексей Нужный, Игорь Волошин, Антон Борматов

Актеры
Яна Троянова, Василий Кортуков, Алина Алексеева, Ксения Суркова, Сергей Романович, Максим Костромыкин, Гоша Куценко, Анастасия Матвеева, Павел Майков, Юра Борисов и др.

Описание

Семейство Терентьевых начинает безудержно спасать окружающих, чего бы им и спасаемым это ни стоило. Сестра Ленка вызволяет молодого отца своего ребенка Пушкина из армейской части и готовится к свадьбе, дочь Аня помогает странному Льву научиться заботиться не только об окружающих, но и о ней с их ребенком, сын Тимофей спасает соседку Сашу от неблагополучного отца, бухарика Жоры, параллельно сам впутываясь все глубже в криминальные истории. Даже Юрген хочет помочь жене, которая уже умерла. Ольга дистанцируется от семьи, и та оказывается на грани катастрофы. Как описывает ситуацию неудавшийся жених Ольги Гриша: Аня жениха выгнала, Тимофей со шпаной связался, дядя Юра вообще цементом могилы заливает... а ей фиолетово!. Только возвращение матери-героини может спасти семью… Но захочет ли Ольга в очередной раз быть самой сильной и решать за всех?


Возраст: 16+ (зрителям, достигшим 16 лет)
Продолжительность: ~ 00: 25: 00 серия
Качество видео: WEB-DL
Видео: AVC/H.264, 1280x720 (16: 9), ~2905 Kbps
Аудио: AC3, 2 ch, 192 Kbps
Общее
Уникальный идентификатор : 180710179794780815172631831311190070996 (0x87F383C03FBE8F45BCC68193F00416D4)
Полное имя : F: СЕРИАЛЫОЛЬГАOlga.S04.2020.WEB-DL.(720p).Files-xOlga.s04e01.2020.WEB-DL.(720p).Files-x.mkv
Формат : Matroska
Версия формата : Version 2
Размер файла : 528 Мбайт
Продолжительность : 23 м. 20 с.
Режим общего битрейта : Переменный
Общий поток : 3160 Кбит/сек
Дата кодирования : UTC 2020-08-31 17: 37: 43
Программа кодирования : mkvmerge v7.8.0 (\'River Man\') 32bit built on Apr 3 2015 12: 11: 22
Библиотека кодирования : libebml v1.3.1 + libmatroska v1.4.2
Видео
Идентификатор : 1
Формат : AVC
Формат/Информация : Advanced Video Codec
Профиль формата : High@L3.1
Настройки формата : CABAC/1 Ref Frames
Параметр CABAC формата : Да
Параметр RefFrames формата : 1 кадр
Параметр GOP формата : M=1, N=50
Идентификатор кодека : V_MPEG4/ISO/AVC
Продолжительность : 23 м. 20 с.
Вид битрейта : Переменный
Битрейт : 2905 Кбит/сек
Максимальный битрейт : 3000 Кбит/сек
Ширина : 1280 пикселей
Высота : 720 пикселей
Соотношение сторон : 16: 9
Режим частоты кадров : Постоянный
Частота кадров : 25, 000 кадров/сек
Цветовое пространство : YUV
Субдискретизация насыщенности : 4: 2: 0
Битовая глубина : 8 бит
Тип развёртки : Прогрессивная
Бит/(Пиксели*Кадры) : 0.126
Размер потока : 485 Мбайт (92%)
Default : Да
Forced : Нет
Аудио
Идентификатор : 2
Формат : AC-3
Формат/Информация : Audio Coding 3
Коммерческое название : Dolby Digital
Идентификатор кодека : A_AC3
Продолжительность : 23 м. 20 с.
Вид битрейта : Постоянный
Битрейт : 192 Кбит/сек
Каналы : 2 канала
ChannelLayout : L R
Частота : 44, 1 КГц
Частота кадров : 28, 711 кадров/сек (1536 SPF)
Битовая глубина : 16 бит
Метод сжатия : С потерями
Размер потока : 32, 0 Мбайт (6%)
ServiceKind/String : Complete Main
Default : Да
Forced : Нет

Скриншоты для ознакомления



Все одноименные релизы в Клубе
Время раздачи: 24/7 (до появления первых 3-5 скачавших)
 
Уважаемый посетитель, Вы зашли на сайт как незарегистрированный пользователь. Мы рекомендуем Вам зарегистрироваться либо зайти на сайт под своим именем.

Другие новости по теме:

  • Ольга (2016) WEB-DL [H.264 / 720p-LQ] (сезон 1, серии 1-3 из 20) (обновляемая)
  • Ольга Никитина - 4 Album (2015 - 2017) [FLAC|Lossless|WEB-DL|tracks + .cue] <Авторская песня>
  • Ольга (2017) WEB-DL [H.264 / 720p-LQ] (сезон 2, серии 1-2 из 20) (обновляемая)
  • Olga Stankevich (Ольга Станкевич) - Dreamway (2011) [FLAC|Lossless|WEB-DL|tracks] <Instrumental Pop, Piano>
  • Olga Stankevich (Ольга Станкевич) - Alone with the City (2014) [FLAC|Lossless|WEB-DL|tracks] <Instrumental Pop, Piano>
  • Ольга Кормухина - Неизданное (2015) [APE|Lossless|WEB-DL|tracks] <Rock>
  • Ольга (2018) WEB-DL [H.264 / 1080p-LQ] (сезон 3, серии 1-2 из 20) (обновляемая)
  • Квартирник НТВ у Маргулиса. Ольга Кормухина и Алексей Белов (02.05.2020) WEB-DL [H.264 / 1080p-LQ]


  • Информация
    Посетители, находящиеся в группе Гости, не могут оставлять комментарии в данной новости.
    Главная страница | Регистрация | Добавить новость | Новое на сайте Copyright © 2019. bolt.mmix.club All Rights Reserved