Подписывайся на наш канал в Telegram https://t.me/torrentok и получи доступ к торрентам без ограничений!
. bolt.mmix.club
Авторские права
con...@...Показать
Вход на сайт
Логин:
Пароль:
 
Навигация по сайту
Популярные статьи

Торрент трекер | Скачать торрент | Скачать через Торрент | Скачать торрент бесплатно | Скачать торрент без регистрации Фильмы торрент скачать Солнечная семья / Sseonkiseu paemilli / Sunkist Family (2019) WEB-DLRip [DVO] торрент скачать бесплатно

Солнечная семья / Sseonkiseu paemilli / Sunkist Family (2019) WEB-DLRip [DVO] торрент скачать бесплатно

Фильмы торрент скачать
Солнечная семья / Sseonkiseu paemilli / Sunkist Family (2019) WEB-DLRip [DVO]Производство: Южная Корея, CJ Entertainment, Doodong Films
Жанр: Комедия, мелодрама
Режиссер: Ким Джи-хе

Актеры
Пак Хи-сун, Чин Гён, Хвану Сыль-хе, Чан Сон-бом, Бора, Ли Го-ын, Чон Сан-хун, Хам Сон-мин, Ким Хе-джи, Ли Джун-ик

Описание

Джун Хо - отец троих детей. Когда-то он мечтал стать художником, но сейчас управляет мясной лавкой. Днем он зарабатывает на хлеб для своей семьи, а ночью тоже занят, удовлетворяя желания жены. Так он сохраняет мир в семье. У его старших детей собственные проблемы. А младшую дочь, Чжин Хэ, беспокоит только сексуальная жизнь родителей, поскольку она понимает, что их энергичная сексуальная жизнь означает мир в семье. Однажды первая любовь Джун Хо, Ми Хи, переезжает в дом по соседству. Теперь спокойствие в семье, которую Джун Хо едва удается сохранить, находится под угрозой.


Релиз от: Rip by vitolinform
Продолжительность: 01: 45: 25
Качество видео: WEB-DLRip
Перевод: Двуголосый любительский (АрхиAsia)
Субтитры: Английские - отдельным файлом
Видео: Xvid, 720x304, ~1591 kbps
Аудио 1: AC3, 2 ch, 192 Кbps | Русский (DVO, АрхиАзия)
Аудио 2: AC3, 2 ch, 192 Кbps | Корейский
Общее
Полное имя : C: Solnechnaya.semejka.2019.WEB-DLRipSolnechnaya.semejka.2019.WEB-DLRip.avi
Формат : AVI
Формат/Информация : Audio Video Interleave
Размер файла : 1, 46 Гбайт
Продолжительность : 1 ч. 45 м.
Общий поток : 1 989 Кбит/сек
Название фильма : Солнечная семья/Sseonkiseu paemilli/Sunkist Family (2019) WEB-DLRip
Режиссёр : Ким Джи-хе/Ji-Hye Kim
Жанр : Комедия, мелодрама
Программа кодирования : VirtualDubMod 1.5.10.2 (build 2542/release)
Формат оригинала/Имя : Художественный фильм
Авторское право : Южная Корея, CJ Entertainment, Doodong Films
Примечание : Rip by vitolinform
Видео
Идентификатор : 0
Формат : MPEG-4 Visual
Профиль формата : Advanced Simple@L5
Настройки формата : BVOP1
Параметр BVOP формата : 1
Параметр QPel формата : Нет
Параметр GMC формата : Без точки перехода
Параметр матрицы формата : Default (MPEG)
Идентификатор кодека : XVID
Идентификатор кодека/Подсказка : XviD
Продолжительность : 1 ч. 45 м.
Битрейт : 1 591 Кбит/сек
Ширина : 720 пикселей
Высота : 304 пикселя
Соотношение сторон : 2, 35: 1
Частота кадров : 23, 976 (24000/1001) кадра/сек
Цветовое пространство : YUV
Субдискретизация насыщенности : 4: 2: 0
Битовая глубина : 8 бит
Тип развёртки : Прогрессивная
Метод сжатия : С потерями
Бит/(Пиксели*Кадры) : 0.303
Размер потока : 1, 17 Гбайт (80%)
Библиотека кодирования : XviD 69
Аудио #1
Идентификатор : 1
Формат : AC-3
Формат/Информация : Audio Coding 3
Коммерческое название : Dolby Digital
Идентификатор кодека : 2000
Продолжительность : 1 ч. 45 м.
Вид битрейта : Постоянный
Битрейт : 192 Кбит/сек
Каналы : 2 канала
Channel layout : L R
Частота : 48, 0 КГц
Частота кадров : 31, 250 кадров/сек (1536 SPF)
Метод сжатия : С потерями
Размер потока : 145 Мбайт (10%)
Выравнивание : Разделение по промежуткам
Продолжительность промежутка : 42 мс. (1, 00 видеокадр)
Время предзагрузки промежутка : 500 мс.
Заголовок : Russian (DVO, АрхиАзия)
Service kind : Complete Main
Аудио #2
Идентификатор : 2
Формат : AC-3
Формат/Информация : Audio Coding 3
Коммерческое название : Dolby Digital
Идентификатор кодека : 2000
Продолжительность : 1 ч. 45 м.
Вид битрейта : Постоянный
Битрейт : 192 Кбит/сек
Каналы : 2 канала
Channel layout : L R
Частота : 48, 0 КГц
Частота кадров : 31, 250 кадров/сек (1536 SPF)
Метод сжатия : С потерями
Размер потока : 145 Мбайт (10%)
Выравнивание : Разделение по промежуткам
Продолжительность промежутка : 42 мс. (1, 00 видеокадр)
Время предзагрузки промежутка : 500 мс.
Заголовок : Korean
Service kind : Complete Main
 
Уважаемый посетитель, Вы зашли на сайт как незарегистрированный пользователь. Мы рекомендуем Вам зарегистрироваться либо зайти на сайт под своим именем.

Другие новости по теме:

  • Чарли Чаплин: Солнечная сторона / Sunnyside (1919) DVDRip [H.264] [hand made colored]
  • Солнечная аллея / Sonnenallee (1999) DVDRip скачать через торрент бесплатно
  • Солнечная аллея / Sonnenallee (1999) BDRip [H.264] скачать через торрент бесплатно
  • Солнечная буря / Solstorm (2007) DVDRip [VO] скачать через торрент бесплатно
  • Астрид Линдгрен | Солнечная Полянка [сборник] (2015) [FB2] скачать через торрент бесплатно
  • Экватор. Амазонка: Солнечная река / Equator. The Amazon: River of the Sun (2005) BDRip [H.264 / 1080p]
  • Александр Громов | Удивительная Солнечная система (2012) [PDF, FB2, RTF]
  • Филис Кристина Каст | Солнечная воительница (2019) [FB2]


  • Информация
    Посетители, находящиеся в группе Гости, не могут оставлять комментарии в данной новости.
    Главная страница | Регистрация | Добавить новость | Новое на сайте Copyright © 2019. bolt.mmix.club All Rights Reserved