Подписывайся на наш канал в Telegram https://t.me/torrentok и получи доступ к торрентам без ограничений!
. bolt.mmix.club
Авторские права
con...@...Показать
Вход на сайт
Логин:
Пароль:
 
Навигация по сайту
Популярные статьи

Торрент трекер | Скачать торрент | Скачать через Торрент | Скачать торрент бесплатно | Скачать торрент без регистрации Фильмы торрент скачать Делай – раз! (1989) WEB-DL [H.264 / 1080p-LQ] торрент скачать бесплатно

Делай – раз! (1989) WEB-DL [H.264 / 1080p-LQ] торрент скачать бесплатно

Фильмы торрент скачать
Делай – раз! (1989) WEB-DL [H.264 / 1080p-LQ]Производство: СССР/Госкино, Мосфильм
Жанр: драма, военный
Режиссер: Андрей Малюков

Актеры
Евгений Миронов, Владимир Машков, Алексей Бурыкин, Сергей Шенталинский, Александр Домогаров, Александр Миронов, Александр Польков, Олег Александров, Владислав Бычков, Юрий Кочнев

Описание

Новобранец Алексей Гаврилов попадает в часть, где царит дедовщина. Он как может сопротивляется трем дедам, которые накануне дембеля решают по максимуму отыграться на черепах за былые унижения. Вскоре он находит единомышленника. Не сумев сломить волю строптивцев, деды осуществляют подлую провокацию, и тогда Алексей решается на отчаянный шаг.


Возраст: 16+ (зрителям, достигшим 16 лет)
Релиз от: ExKinoRay
Продолжительность: 01: 20: 19
Качество видео: WEB-DL
Субтитры: Отсутствуют
Видео: AVC/H.264, 1920х852, ~5015 Kbps
Аудио: AC3, 2 ch, 192 Kbps, русский
Общее
Уникальный идентификатор : 217315750938925114082241674630142934503 (0xA37D7DC012494662B0EAB562BF2CBDE7)
Полное имя : E: DownloadsДелай – раз.1989.WEB.1080p.ExKinoRay.mkv
Формат : Matroska
Версия формата : Version 2
Размер файла : 2, 98 Гбайт
Продолжительность : 1 ч. 20 м.
Общий поток : 5 312 Кбит/сек
Название фильма : Делай – раз! 1989 from ExKinoRay
Дата кодирования : UTC 2020-08-31 02: 46: 52
Программа кодирования : mkvmerge v5.6.0 (\'Kenya Kane\') built on May 27 2012 16: 44: 04
Библиотека кодирования : libebml v1.2.3 + libmatroska v1.3.0
Видео
Идентификатор : 1
Формат : AVC
Формат/Информация : Advanced Video Codec
Профиль формата : High@L4
Настройки формата : CABAC/4 Ref Frames
Параметр CABAC формата : Да
Параметр RefFrames формата : 4 кадра
Идентификатор кодека : V_MPEG4/ISO/AVC
Продолжительность : 1 ч. 20 м.
Битрейт : 5 015 Кбит/сек
Ширина : 1 920 пикселей
Высота : 852 пикселя
Соотношение сторон : 2, 25: 1
Режим частоты кадров : Постоянный
Частота кадров : 25, 000 кадров/сек
Цветовое пространство : YUV
Субдискретизация насыщенности : 4: 2: 0
Битовая глубина : 8 бит
Тип развёртки : Прогрессивная
Бит/(Пиксели*Кадры) : 0.123
Размер потока : 2, 81 Гбайт (94%)
Default : Да
Forced : Нет
Duration_Source : General_Duration
Аудио
Идентификатор : 2
Формат : AC-3
Формат/Информация : Audio Coding 3
Коммерческое название : Dolby Digital
Идентификатор кодека : A_AC3
Продолжительность : 1 ч. 20 м.
Вид битрейта : Постоянный
Битрейт : 192 Кбит/сек
Каналы : 2 канала
Channel layout : L R
Частота : 48, 0 КГц
Частота кадров : 31, 250 кадров/сек (1536 SPF)
Метод сжатия : С потерями
Размер потока : 110 Мбайт (4%)
Язык : Russian
Service kind : Complete Main
Default : Да
Forced : Нет
Duration_Source : General_Duration

Скриншоты для ознакомления



Все одноименные релизы в Клубе
Время раздачи: 24/7 (мультитрекерная раздача)
 
Уважаемый посетитель, Вы зашли на сайт как незарегистрированный пользователь. Мы рекомендуем Вам зарегистрироваться либо зайти на сайт под своим именем.

Другие новости по теме:

  • Оскар Хартманн | Просто делай! Делай просто! (2020) [MP3]
  • Оскар Хартманн | Просто делай! Делай просто! (2019) [PDF]
  • Терри Пратчетт | Делай деньги [Главы 1-02 из 13. Обновляемая] (2014) [MP3] скачать через торрент бесплатно
  • Не будите спящих - Делай свое дело (2015) [MP3|320 кб / с]<Hip-Hop> скачать через торрент бесплатно
  • Пол Макги | SUMO. Заткнись и делай (2016) [FB2]
  • Шаа Васмунд | Делай меньше, получай больше (2016) [FB2, RTF]
  • Андрей Парабеллум, Александр Белановский | Делай деньги. От мечты к миллионам (2015) [FB2]
  • Ричард Брэнсон | К черту всё! Берись и делай! Полная версия (2016) [FB2]


  • Информация
    Посетители, находящиеся в группе Гости, не могут оставлять комментарии в данной новости.
    Главная страница | Регистрация | Добавить новость | Новое на сайте Copyright © 2019. bolt.mmix.club All Rights Reserved