Подписывайся на наш канал в Telegram https://t.me/torrentok и получи доступ к торрентам без ограничений!
. bolt.mmix.club
Авторские права
con...@...Показать
Вход на сайт
Логин:
Пароль:
 
Навигация по сайту
Популярные статьи

Торрент трекер | Скачать торрент | Скачать через Торрент | Скачать торрент бесплатно | Скачать торрент без регистрации Фильмы торрент скачать Отряд особого назначения / Forces speciales (2011) BDRip [H.265 / 1080p] [10-bit] [CZE Trancfer] торрент скачать бесплатно

Отряд особого назначения / Forces speciales (2011) BDRip [H.265 / 1080p] [10-bit] [CZE Trancfer] торрент скачать бесплатно

Фильмы торрент скачать
Отряд особого назначения / Forces speciales (2011) BDRip [H.265 / 1080p] [10-bit] [CZE Trancfer]Производство: Франция/Easy Company, StudioCanal, Canal+
Жанр: боевик, драма, военный
Режиссер: Стефан Рибожад

Актеры
Дайан Крюгер, Джимон Хунсу, Бенуа Мажимель, Дэнис Меночет, Рафаэль Персонас, Ален Фиглаж, Ален Аливон, Мехди Неббу, Раз Деган, Чеки Карио

Описание
Молодая французская журналистка похищена в Афганистане талибами. Правительство Франции отказывается выполнять условия похитителей. Тогда талибы размещают в Интернете жестокое видео с обратным отсчетом времени до ее казни. На выручку девушке отправляется элитный отряд французского спецназа. Но мало отбить жертву у бандитов, нужно еще вывести ее на Большую землю. Возвращение домой становится крестным путем и для гражданской журналистки, и для бывалых вояк-спецназовцев.


Возраст: 16+ (зрителям, достигшим 16 лет)
Рейтинг MPAA: R (лицам до 17 лет обязательно присутствие взрослого)
Релиз от: ADVOKAT69 (HEVC-CLUB)
Продолжительность: 01: 48: 53
Качество видео: BDRip
Перевод: Дублированный
Субтитры: Отсутствуют
Видео: HEVC/H.265, 1920x1080, ~10, 8 Мbps
Аудио: AC3, 6 ch, 384 Kbps - Русский, дублированный (R5)
===============================================================
x265 info: frame I: 2601, Avg QP: 17.79 kb/s: 31623.87
x265 info: frame P: 38977, Avg QP: 19.20 kb/s: 21760.27
x265 info: frame B: 115046, Avg QP: 21.44 kb/s: 6592.31
x265 info: Weighted P-Frames: Y: 7.3% UV: 5.5%
x265 info: Weighted B-Frames: Y: 6.2% UV: 4.4%
x265 info: consecutive B-frames: 14.0% 11.6% 11.6% 33.2% 8.5% 18.8% 1.6% 0.7%
encoded 156624 frames in 160865.47s (0.97 fps), 10782.66 kb/s, Avg QP: 20.82
===============================================================
Общее
Уникальный идентификатор : 188090355411168591650103137513474829790 (0x8D80E28087271E8391B395CE7CF72DDE)
Полное имя : R: Отряд особого назначения (2011) HEVC 10bit.mkv
Формат : Matroska
Версия формата : Version 4/Version 2
Размер файла : 8, 49 Гбайт
Продолжительность : 1 ч. 48 м.
Общий поток : 11, 2 Мбит/сек
Дата кодирования : UTC 2020-08-31 06: 29: 18
Программа кодирования : mkvmerge v9.2.0 (\'Photograph\') 64bit
Библиотека кодирования : libebml v1.3.3 + libmatroska v1.4.4
Видео
Идентификатор : 1
Формат : HEVC
Формат/Информация : High Efficiency Video Coding
Профиль формата : Main10@L4.1@High
Идентификатор кодека : V_MPEGH/ISO/HEVC
Продолжительность : 1 ч. 48 м.
Битрейт : 10, 8 Мбит/сек
Ширина : 1920 пикселей
Высота : 1080 пикселей
Соотношение сторон : 16: 9
Режим частоты кадров : Постоянный
Частота кадров : 23, 976 (24000/1001) кадра/сек
Цветовое пространство : YUV
Субдискретизация насыщенности : 4: 2: 0
Битовая глубина : 10 бит
Бит/(Пиксели*Кадры) : 0.217
Размер потока : 8, 20 Гбайт (97%)
Библиотека кодирования : x265 3.4+1-7b120308dc64: WindowsMSVC 190064 bit 10bit
Настройки программы : cpuid=1049583/frame-threads=3/numa-pools=8/wpp/no-pmode/no-pme/no-psnr/no-ssim/log-level=2/input-csp=1/input-res=1920x1080/interlace=0/total-frames=156624/level-idc=41/high-tier=1/uhd-bd=0/ref=5/no-allow-non-conformance/no-repeat-t_heads/annexb/no-aud/no-hrd/info/hash=0/no-temporal-layers/open-gop/min-keyint=24/keyint=240/gop-lookahead=0/bframes=7/b-adapt=2/b-pyramid/bframe-bias=0/rc-lookahead=40/lookahead-slices=4/scenecut=40/hist-scenecut=0/radl=0/no-splice/no-intra-refresh/ctu=32/min-cu-size=8/rect/no-amp/max-tu-size=32/tu-inter-depth=4/tu-intra-depth=4/limit-tu=1/rdoq-level=2/dynamic-rd=4.00/no-ssim-rd/signhide/no-tskip/nr-intra=0/nr-inter=0/constrained-intra/no-strong-intra-smoothing/max-merge=3/limit-refs=3/limit-modes/me=3/subme=7/merange=57/temporal-mvp/no-frame-dup/no-hme/weightp/weightb/no-analyze-src-pics/deblock=-2: -2/no-sao/no-sao-non-deblock/rd=4/selective-sao=0/no-early-skip/rskip/no-fast-intra/no-tskip-fast/no-cu-lossless/b-intra/no-splitrd-skip/rdpenalty=0/psy-rd=1.50/psy-rdoq=0.70/no-rd-refine/no-lossless/cbqpoffs=0/crqpoffs=0/rc=crf/crf=19.0/qcomp=0.60/qpstep=4/stats-write=0/stats-read=0/vbv-maxrate=50000/vbv-bufsize=50000/vbv-init=0.9/crf-max=0.0/crf-min=0.0/ipratio=1.40/pbratio=1.30/aq-mode=2/aq-strength=0.80/no-cutree/zone-count=0/no-strict-cbr/qg-size=32/no-rc-grain/qpmax=69/qpmin=0/no-const-vbv/sar=1/overscan=0/videoformat=5/range=0/colorprim=1/transfer=1/colormatrix=1/chromaloc=0/display-window=0/cll=0, 0/min-luma=0/max-luma=1023/log2-max-poc-lsb=8/vui-timing-info/vui-hrd-info/slices=1/no-opt-qp-pps/no-opt-ref-list-length-pps/no-multi-pass-opt-rps/scenecut-bias=0.05/hist-threshold=0.01/no-opt-cu-delta-qp/no-aq-motion/no-hdr10/no-hdr10-opt/no-dhdr10-opt/no-idr-recovery-sei/analysis-reuse-level=0/analysis-save-reuse-level=0/analysis-load-reuse-level=0/scale-factor=0/refine-intra=0/refine-inter=0/refine-mv=1/refine-ctu-distortion=0/no-limit-sao/ctu-info=0/no-lowpass-dct/refine-analysis-type=0/copy-pic=1/max-ausize-factor=1.0/no-dynamic-refine/no-single-sei/no-hevc-aq/no-svt/no-field/qp-adaptation-range=1.00/no-scenecut-aware-qpconformance-window-offsets/right=0/bottom=0/decoder-max-rate=0
Default : Да
Forced : Нет
Цветовой диапазон : Limited
Основные цвета : BT.709
Характеристики трансфера : BT.709
Коэффициенты матрицы : BT.709
Аудио
Идентификатор : 2
Формат : AC-3
Формат/Информация : Audio Coding 3
Идентификатор кодека : A_AC3
Продолжительность : 1 ч. 48 м.
Вид битрейта : Постоянный
Битрейт : 384 Кбит/сек
Каналы : 6 каналов
Расположение каналов : Front: L C R, Side: L R, LFE
Частота : 48, 0 КГц
Частота кадров : 31, 250 кадров/сек (1536 SPF)
Битовая глубина : 16 бит
Метод сжатия : С потерями
Размер потока : 299 Мбайт (3%)
Заголовок : Dub, R5
Язык : Russian
ServiceKind/String : Complete Main
Default : Да
Forced : Нет
Меню
00: 00: 00.000 : : Chapter 01
00: 09: 31.779 : : Chapter 02
00: 18: 48.752 : : Chapter 03
00: 27: 40.033 : : Chapter 04
00: 36: 05.288 : : Chapter 05
00: 45: 04.660 : : Chapter 06
00: 54: 03.573 : : Chapter 07
01: 04: 58.936 : : Chapter 08
01: 13: 57.850 : : Chapter 09
01: 24: 49.292 : : Chapter 10
01: 32: 15.154 : : Chapter 11
01: 45: 25.319 : : Chapter 12
 
Уважаемый посетитель, Вы зашли на сайт как незарегистрированный пользователь. Мы рекомендуем Вам зарегистрироваться либо зайти на сайт под своим именем.

Другие новости по теме:

  • Отряд особого назначения (1978) HDTV [H.264 / 1080i]
  • Отряд особого назначения (1978) HDTVRip [H.264 / 720p-LQ]


  • Информация
    Посетители, находящиеся в группе Гости, не могут оставлять комментарии в данной новости.
    Главная страница | Регистрация | Добавить новость | Новое на сайте Copyright © 2019. bolt.mmix.club All Rights Reserved