Подписывайся на наш канал в Telegram https://t.me/torrentok и получи доступ к торрентам без ограничений!
. bolt.mmix.club
Авторские права
con...@...Показать
Вход на сайт
Логин:
Пароль:
 
Навигация по сайту
Популярные статьи

Торрент трекер | Скачать торрент | Скачать через Торрент | Скачать торрент бесплатно | Скачать торрент без регистрации Фильмы торрент скачать Американский пирог 5: Голая миля / American Pie Presents: The Naked Mile (2006) BDRip [H.265 / 1080p] [10-bit] [Unrated] торрент скачать бесплатно

Американский пирог 5: Голая миля / American Pie Presents: The Naked Mile (2006) BDRip [H.265 / 1080p] [10-bit] [Unrated] торрент скачать бесплатно

Фильмы торрент скачать
Американский пирог 5: Голая миля / American Pie Presents: The Naked Mile (2006) BDRip [H.265 / 1080p] [10-bit] [Unrated]Производство: США, Канада/Universal Pictures Home Entertainment (UPHE), Rogue Pictures, Neo Art Logic
Жанр: комедия
Режиссер: Джо Нуссбаум

Актеры
Джон Уайт, Мария Рикосса, Кристофер МакДональд, Джо Бостик, Алисса Николь Паллетт, Джессика Букер, Джэйк Сигел, Росс Томас, Мишель Кормье, Стефани Секстон

Описание
Когда Эрик Стифлер осознает, что он единственный из семьи Стифлеров, кто закончит высшую школу девственником, он принимает решение соответствовать уготованному наследию.


Возраст: 18+ (зрителям, достигшим 18 лет. запрещено для детей)
Рейтинг MPAA: R (лицам до 17 лет обязательно присутствие взрослого)
Релиз от: -Star-Lord- (HEVC-CLUB)
Продолжительность: 01: 42: 27
Качество видео: BDRip
Перевод: Дублированный, многоголосый, двухголосый
Язык озвучки: Русский, украинский, английский
Субтитры: Украинские, английские (SDH)
Видео: HEVC/H.265, 1916x1036, ~8464 Кbps
Аудио 1: AC3, 2 ch, 192 Kbps - Русский, MVO (R5)
Аудио 2: AC3, 2 ch, 192 Kbps - Русский, дублированный (2x2, Пятница)
Аудио 3: AC3, 2 ch, 192 Kbps - Русский, DVO
Аудио 4: AC3, 6 ch, 384 Kbps - Украинский, MVO (Kanal Ukraina)
Аудио 5: AC3, 6 ch, 384 Kbps - Английский
Аудио 6: AC3, 2 ch, 192 Kbps - Английский, Commentary
Общее
Уникальный идентификатор : 225862416570601076454639686605151661917 (0xA9EB84E642B8E81DEA8ACFCC7F7BEF5D)
Полное имя : R: 5. American Pie Presents - The Naked Mile UNRATED (2006) BDRip 1080p H.265 3xRUS_UKR_ENG HEVC-CLUB.mkv
Формат : Matroska
Версия формата : Version 4/Version 2
Размер файла : 7, 12 Гбайт
Продолжительность : 1 ч. 42 м.
Общий поток : 9948 Кбит/сек
Название фильма : Американский пирог: Голая миля/Американський пиріг - 5: Гола миля/Американський пиріг представляє: Гола миля/American Pie Presents The Naked Mile (2006)
Дата кодирования : UTC 2020-08-25 14: 39: 03
Программа кодирования : mkvmerge v20.0.0 (\'I Am The Sun\') 64-bit
Библиотека кодирования : libebml v1.3.5 + libmatroska v1.4.8
Обложка : Yes
Attachments : Cover
Видео
Идентификатор : 1
Формат : HEVC
Формат/Информация : High Efficiency Video Coding
Профиль формата : Main10@L5.1@High
Идентификатор кодека : V_MPEGH/ISO/HEVC
Продолжительность : 1 ч. 41 м.
Битрейт : 8464 Кбит/сек
Ширина : 1916 пикселей
Высота : 1036 пикселей
Соотношение сторон : 1, 85: 1
Режим частоты кадров : Постоянный
Частота кадров : 23, 976 (24000/1001) кадра/сек
Цветовое пространство : YUV
Субдискретизация насыщенности : 4: 2: 0
Битовая глубина : 10 бит
Бит/(Пиксели*Кадры) : 0.178
Размер потока : 6, 02 Гбайт (85%)
Заголовок : Американский пирог: Голая миля/Американський пиріг 5: Гола миля/Американський пиріг представляє: Гола миля/American Pie Presents The Naked Mile (2006)
Библиотека кодирования : x265 3.2+5-354901970679: Windowsclang 8.0.164 bit 10bit
Настройки программы : cpuid=1111039/frame-threads=13/numa-pools=12/wpp/no-pmode/no-pme/no-psnr/no-ssim/log-level=3/input-csp=1/input-res=1916x1036/interlace=0/total-frames=0/level-idc=51/high-tier=1/uhd-bd=0/ref=5/allow-non-conformance/no-repeat-t_heads/annexb/no-aud/no-hrd/info/hash=0/no-temporal-layers/open-gop/min-keyint=24/keyint=240/gop-lookahead=0/bframes=16/b-adapt=2/b-pyramid/bframe-bias=0/rc-lookahead=60/lookahead-slices=6/scenecut=40/radl=0/no-splice/no-intra-refresh/ctu=64/min-cu-size=8/rect/amp/max-tu-size=32/tu-inter-depth=4/tu-intra-depth=4/limit-tu=0/rdoq-level=2/dynamic-rd=0.00/no-ssim-rd/signhide/no-tskip/nr-intra=0/nr-inter=0/no-constrained-intra/no-strong-intra-smoothing/max-merge=3/limit-refs=1/no-limit-modes/me=3/subme=7/merange=57/temporal-mvp/no-frame-dup/no-hme/weightp/weightb/no-analyze-src-pics/deblock=-3: -3/no-sao/no-sao-non-deblock/rd=6/selective-sao=0/early-skip/rskip/no-fast-intra/no-tskip-fast/no-cu-lossless/b-intra/no-splitrd-skip/rdpenalty=0/psy-rd=2.00/psy-rdoq=1.00/no-rd-refine/no-lossless/cbqpoffs=0/crqpoffs=0/rc=crf/crf=20.5/qcomp=0.65/qpstep=4/stats-write=0/stats-read=0/vbv-maxrate=50000/vbv-bufsize=50000/vbv-init=0.9/crf-max=30.0/crf-min=0.0/ipratio=1.40/pbratio=1.30/aq-mode=1/aq-strength=1.00/no-cutree/zone-count=0/no-strict-cbr/qg-size=32/no-rc-grain/qpmax=69/qpmin=0/no-const-vbv/sar=1/overscan=0/videoformat=5/range=0/colorprim=2/transfer=2/colormatrix=2/chromaloc=0/display-window=0/cll=0, 0/min-luma=0/max-luma=1023/log2-max-poc-lsb=8/vui-timing-info/vui-hrd-info/slices=1/no-opt-qp-pps/no-opt-ref-list-length-pps/no-multi-pass-opt-rps/scenecut-bias=0.05/no-opt-cu-delta-qp/no-aq-motion/no-hdr/no-hdr-opt/no-dhdr10-opt/no-idr-recovery-sei/analysis-reuse-level=5/scale-factor=0/refine-intra=0/refine-inter=0/refine-mv=1/refine-ctu-distortion=0/no-limit-sao/ctu-info=0/no-lowpass-dct/refine-analysis-type=0/copy-pic=1/max-ausize-factor=1.0/no-dynamic-refine/no-single-sei/no-hevc-aq/no-svt/no-field/qp-adaptation-range=1.00
Default : Да
Forced : Нет
Цветовой диапазон : Limited
Аудио #1
Идентификатор : 2
Формат : AC-3
Формат/Информация : Audio Coding 3
Идентификатор кодека : A_AC3
Продолжительность : 1 ч. 42 м.
Вид битрейта : Постоянный
Битрейт : 192 Кбит/сек
Каналы : 2 канала
Расположение каналов : Front: L R
Частота : 48, 0 КГц
Частота кадров : 31, 250 кадров/сек (1536 SPF)
Битовая глубина : 16 бит
Метод сжатия : С потерями
Размер потока : 141 Мбайт (2%)
Заголовок : AC3/2.0 Ch/192 kbps/MVO/R5
Язык : Russian
ServiceKind/String : Complete Main
Default : Да
Forced : Да
Аудио #2
Идентификатор : 3
Формат : AC-3
Формат/Информация : Audio Coding 3
Идентификатор кодека : A_AC3
Продолжительность : 1 ч. 42 м.
Вид битрейта : Постоянный
Битрейт : 192 Кбит/сек
Каналы : 2 канала
Расположение каналов : Front: L R
Частота : 48, 0 КГц
Частота кадров : 31, 250 кадров/сек (1536 SPF)
Битовая глубина : 16 бит
Метод сжатия : С потерями
Размер потока : 141 Мбайт (2%)
Заголовок : AC3/2.0 Ch/192 kbps/DUB/2x2, Пятница
Язык : Russian
ServiceKind/String : Complete Main
Default : Нет
Forced : Нет
Аудио #3
Идентификатор : 4
Формат : AC-3
Формат/Информация : Audio Coding 3
Идентификатор кодека : A_AC3
Продолжительность : 1 ч. 42 м.
Вид битрейта : Постоянный
Битрейт : 192 Кбит/сек
Каналы : 2 канала
Расположение каналов : Front: L R
Частота : 48, 0 КГц
Частота кадров : 31, 250 кадров/сек (1536 SPF)
Битовая глубина : 16 бит
Метод сжатия : С потерями
Размер потока : 141 Мбайт (2%)
Заголовок : AC3/2.0 Ch/192 kbps/DVO
Язык : Russian
ServiceKind/String : Complete Main
Default : Нет
Forced : Нет
Аудио #4
Идентификатор : 5
Формат : AC-3
Формат/Информация : Audio Coding 3
Идентификатор кодека : A_AC3
Продолжительность : 1 ч. 41 м.
Вид битрейта : Постоянный
Битрейт : 384 Кбит/сек
Каналы : 6 каналов
Расположение каналов : Front: L C R, Side: L R, LFE
Частота : 48, 0 КГц
Частота кадров : 31, 250 кадров/сек (1536 SPF)
Битовая глубина : 16 бит
Метод сжатия : С потерями
Размер потока : 279 Мбайт (4%)
Заголовок : AC3/5.1 Ch/384 kbps/MVO/Kanal Ukraina
Язык : Ukrainian
ServiceKind/String : Complete Main
Default : Нет
Forced : Нет
Аудио #5
Идентификатор : 6
Формат : AC-3
Формат/Информация : Audio Coding 3
Идентификатор кодека : A_AC3
Продолжительность : 1 ч. 41 м.
Вид битрейта : Постоянный
Битрейт : 384 Кбит/сек
Каналы : 6 каналов
Расположение каналов : Front: L C R, Side: L R, LFE
Частота : 48, 0 КГц
Частота кадров : 31, 250 кадров/сек (1536 SPF)
Битовая глубина : 16 бит
Метод сжатия : С потерями
Размер потока : 280 Мбайт (4%)
Заголовок : AC3/5.1 Ch/384 kbps/Original
Язык : English
ServiceKind/String : Complete Main
Default : Нет
Forced : Нет
Аудио #6
Идентификатор : 7
Формат : AC-3
Формат/Информация : Audio Coding 3
Идентификатор кодека : A_AC3
Продолжительность : 1 ч. 41 м.
Вид битрейта : Постоянный
Битрейт : 192 Кбит/сек
Каналы : 2 канала
Расположение каналов : Front: L R
Частота : 48, 0 КГц
Частота кадров : 31, 250 кадров/сек (1536 SPF)
Битовая глубина : 16 бит
Метод сжатия : С потерями
Размер потока : 140 Мбайт (2%)
Заголовок : AC3/2.0 Ch/192 kbps/Original/Commentary
Язык : English
ServiceKind/String : Complete Main
Default : Нет
Forced : Нет
Текст #1
Идентификатор : 8
Формат : UTF-8
Идентификатор кодека : S_TEXT/UTF8
Идентификатор кодека/Информация : UTF-8 Plain Text
Продолжительность : 1 ч. 41 м.
Битрейт : 83 бит/сек
ElementCount : 1301
Размер потока : 62, 2 Кбайт (0%)
Заголовок : Full From Netflix
Язык : Ukrainian
Default : Нет
Forced : Нет
Текст #2
Идентификатор : 9
Формат : UTF-8
Идентификатор кодека : S_TEXT/UTF8
Идентификатор кодека/Информация : UTF-8 Plain Text
Продолжительность : 1 ч. 38 м.
Битрейт : 66 бит/сек
ElementCount : 1540
Размер потока : 47, 8 Кбайт (0%)
Заголовок : SDH
Язык : English
Default : Нет
Forced : Нет
Меню
00: 00: 00.000 : : Grandma
00: 03: 51.634 : : Story of My Life
00: 06: 31.401 : : The Virgin Stiffler
00: 09: 45.302 : : I Wanna Have Sex
00: 13: 46.136 : : Disturbing Noise
00: 20: 28.670 : : Guilt-Free Pass
00: 29: 03.237 : : Heavyweight Drinking Competition
00: 33: 57.004 : : Serious Problem
00: 36: 22.171 : : Vertically Challenged
00: 46: 04.072 : : Welcome to Paradise
00: 53: 29.639 : : Seeking Council
00: 59: 34.939 : : Van Attack
01: 02: 52.939 : : Proud Tradition
01: 09: 24.305 : : The Greatest Race
01: 13: 29.740 : : Hardball
01: 20: 41.807 : : Special Night
01: 24: 42.041 : : Getting Down
01: 28: 03.642 : : The Most Important Thing
01: 35: 04.976 : : Earning the Name
01: 38: 16.577 : : End Titles
01: 41: 41.610 : : Chapter 21
 
Уважаемый посетитель, Вы зашли на сайт как незарегистрированный пользователь. Мы рекомендуем Вам зарегистрироваться либо зайти на сайт под своим именем.

Другие новости по теме:

  • Американский пирог / American Pie [Unrated Cut] (1999) BDRip [H.265 / 1080p]
  • Американский пирог: Все в сборе / American Reunion (2012) BDRip [H.265 / 1080p-LQ]
  • Американский пирог / American Pie (1999) HDRip [H.264] [Hand Made Extended Cut]
  • Американский пирог 3: Свадьба / American Wedding (2003) HDRip [H.264] [Hand Made Extended Cut]
  • Американский пирог: Музыкальный лагерь / American Pie Presents Band Camp (2005) HDTVRip [H.264] [Hand Made Extended Cut]
  • Американский пирог: Все в сборе / American Reunion (2012) HDRip [H.264] [Hand Made Extended Unrated Cut]
  • Американский пирог: Трилогия / American Pie: Trilogy (1999 / 2001 / 2003) BDRip [H.264 / 720p] [Unrated]
  • Американский пирог: Голая миля / The Naked Mile (2006) WEB-DLRip [H.264] [Unrated Cut]


  • Информация
    Посетители, находящиеся в группе Гости, не могут оставлять комментарии в данной новости.
    Главная страница | Регистрация | Добавить новость | Новое на сайте Copyright © 2019. bolt.mmix.club All Rights Reserved