Подписывайся на наш канал в Telegram https://t.me/torrentok и получи доступ к торрентам без ограничений!
. bolt.mmix.club
Авторские права
con...@...Показать
Вход на сайт
Логин:
Пароль:
 
Навигация по сайту
Популярные статьи

Торрент трекер | Скачать торрент | Скачать через Торрент | Скачать торрент бесплатно | Скачать торрент без регистрации Фильмы торрент скачать Пока всё хорошо / Jusquici tout va bien (2019) BDRip [H.264 / 1080p] торрент скачать бесплатно

Пока всё хорошо / Jusquici tout va bien (2019) BDRip [H.264 / 1080p] торрент скачать бесплатно

Фильмы торрент скачать
Пока всё хорошо / Jusquici tout va bien (2019) BDRip [H.264 / 1080p]Производство: Франция, Бельгия, Quad Productions, Kiss Films, TF1 Studio
Жанр: Комедия
Режиссер: Мохамед Хамиди
Продюсер: Жамель Деббуз, Николя Дюваль-Адассовски

Актеры
Жиль Леллуш, Малик Бенталха, Сабрина Уазани, Камилль Лу, Энн-Элизабет Блету, Лоик Лежандр, Хьюго Бекер, Хармандип Палминдер, Аннабель Лангронн, Grégoire Plantade

Описание

Фред Бартель — харизматичный владелец модного парижского рекламного агентства. После внезапной налоговой проверки он получает предписание перенести свой офис в пользующийся дурной славой пригород Парижа. Вынужденное соседство становится культурным шоком как для сотрудников агентства, так и для местных жителей. Но благодаря стараниям знающего гида, вскоре ставшего незаменимым сотрудником агентства, всем удается ужиться и даже избавиться от многих стереотипов.


Дата мировой премьеры: 15 января 2019, ...
Продолжительность: 01: 33: 04
Качество видео: BDRip
Перевод: Многоголосый профессиональный (iTunes)
Субтитры: Отсутствуют
Видео: AVC/H.264, 1920x808, ~8576 kbps
Аудио 1: AC3, 6 ch, 448 kbps - Русский
Аудио 2: DTS, 6 ch, 1509 kbps - Французский
Общее
Уникальный идентификатор : 174768727979052239302586264484912273632 (0x837B3B8F5379E5D3A66680675AF798E0)
Полное имя : D: NNMClubJusqu.ici.Tout.va.Bien.2019.BDRip.1080p.mkv
Формат : Matroska
Версия формата : Version 4
Размер файла : 6, 85 Гбайт
Продолжительность : 1 ч. 33 м.
Общий поток : 10, 5 Мбит/сек
Дата кодирования : UTC 2020-08-30 19: 55: 42
Программа кодирования : mkvmerge v7.1.0 (\'Good Love\') 64bit built on Jul 27 2014 13: 06: 55
Библиотека кодирования : libebml v1.3.0 + libmatroska v1.4.1
Видео
Идентификатор : 1
Формат : AVC
Формат/Информация : Advanced Video Codec
Профиль формата : High@L4.1
Настройки формата : CABAC/5 Ref Frames
Параметр CABAC формата : Да
Параметр RefFrames формата : 5 кадров
Идентификатор кодека : V_MPEG4/ISO/AVC
Продолжительность : 1 ч. 33 м.
Битрейт : 8576 Кбит/сек
Ширина : 1920 пикселей
Высота : 808 пикселей
Соотношение сторон : 2, 40: 1
Режим частоты кадров : Постоянный
Частота кадров : 24, 000 кадра/сек
Цветовое пространство : YUV
Субдискретизация насыщенности : 4: 2: 0
Битовая глубина : 8 бит
Тип развёртки : Прогрессивная
Бит/(Пиксели*Кадры) : 0.230
Размер потока : 5, 57 Гбайт (81%)
Библиотека кодирования : x264 core 157 r2969 d4099dd
Настройки программы : cabac=1/ref=5/deblock=1: 0: 0/analyse=0x3: 0x113/me=umh/subme=8/psy=1/psy_rd=1.00: 0.00/mixed_ref=1/me_range=16/chroma_me=1/trellis=1/8x8dct=1/cqm=0/deadzone=21, 11/fast_pskip=1/chroma_qp_offset=-2/threads=18/lookahead_threads=3/sliced_threads=0/nr=0/decimate=1/interlaced=0/bluray_compat=0/constrained_intra=0/bframes=3/b_pyramid=2/b_adapt=2/b_bias=0/direct=3/weightb=1/open_gop=0/weightp=2/keyint=240/keyint_min=24/scenecut=40/intra_refresh=0/rc_lookahead=50/rc=2pass/mbtree=1/bitrate=8576/ratetol=1.0/qcomp=0.60/qpmin=0/qpmax=69/qpstep=4/cplxblur=20.0/qblur=0.5/ip_ratio=1.40/aq=1: 1.00
Язык : English
Default : Да
Forced : Нет
Аудио #1
Идентификатор : 2
Формат : AC-3
Формат/Информация : Audio Coding 3
Коммерческое название : Dolby Digital
Идентификатор кодека : A_AC3
Продолжительность : 1 ч. 33 м.
Вид битрейта : Постоянный
Битрейт : 448 Кбит/сек
Каналы : 6 каналов
ChannelLayout : L R C LFE Ls Rs
Частота : 48, 0 КГц
Частота кадров : 31, 250 кадров/сек (1536 SPF)
Битовая глубина : 16 бит
Метод сжатия : С потерями
Размер потока : 298 Мбайт (4%)
Заголовок : MVO | iTunes
Язык : Russian
ServiceKind/String : Complete Main
Default : Да
Forced : Нет
Аудио #2
Идентификатор : 3
Формат : DTS
Формат/Информация : Digital Theater Systems
Идентификатор кодека : A_DTS
Продолжительность : 1 ч. 33 м.
Вид битрейта : Постоянный
Битрейт : 1509 Кбит/сек
Каналы : 6 каналов
ChannelLayout : C L R Ls Rs LFE
Частота : 48, 0 КГц
Частота кадров : 93, 750 кадра/сек (512 SPF)
Битовая глубина : 24 бит
Метод сжатия : С потерями
Размер потока : 1004 Мбайт (14%)
Язык : French
Default : Нет
Forced : Нет
Меню
00: 00: 00.000 : en: 00: 00: 00.000
00: 11: 38.750 : en: 00: 11: 38.750
00: 17: 17.042 : en: 00: 17: 17.042
00: 24: 17.750 : en: 00: 24: 17.750
00: 33: 32.042 : en: 00: 33: 32.042
00: 41: 45.958 : en: 00: 41: 45.958
00: 48: 32.667 : en: 00: 48: 32.667
00: 56: 42.042 : en: 00: 56: 42.042
01: 04: 59.583 : en: 01: 04: 59.583
01: 12: 23.458 : en: 01: 12: 23.458
01: 20: 52.750 : en: 01: 20: 52.750
01: 28: 58.792 : en: 01: 28: 58.792

Скриншоты для ознакомления



Все одноименные релизы в Клубе
Время раздачи: 24/7 (круглосуточно) (до появления первых 3-5 скачавших)
 
Уважаемый посетитель, Вы зашли на сайт как незарегистрированный пользователь. Мы рекомендуем Вам зарегистрироваться либо зайти на сайт под своим именем.

Другие новости по теме:

  • Пока всё хорошо / Jusquici tout va bien (2019) HDRip [MVO] [AD]
  • Пока всё хорошо / Jusquici tout va bien (2019) BDRip [H.264 / 720p-LQ] [MVO] [AD]


  • Информация
    Посетители, находящиеся в группе Гости, не могут оставлять комментарии в данной новости.
    Главная страница | Регистрация | Добавить новость | Новое на сайте Copyright © 2019. bolt.mmix.club All Rights Reserved