Подписывайся на наш канал в Telegram https://t.me/torrentok и получи доступ к торрентам без ограничений!
. bolt.mmix.club
Авторские права
con...@...Показать
Вход на сайт
Логин:
Пароль:
 
Навигация по сайту
Популярные статьи

Торрент трекер | Скачать торрент | Скачать через Торрент | Скачать торрент бесплатно | Скачать торрент без регистрации Фильмы торрент скачать Вратарь Галактики (2020) CAMRip [H.264 / 720p-LQ] [AD] торрент скачать бесплатно

Вратарь Галактики (2020) CAMRip [H.264 / 720p-LQ] [AD] торрент скачать бесплатно

Фильмы торрент скачать
Вратарь Галактики (2020) CAMRip [H.264 / 720p-LQ] [AD]Производство: Россия/Телеканал РОССИЯ 1, Бонанза Студио, Кинокомпания CTB
Жанр: Приключения, фантастика
Режиссер: Джаник Файзиев

Актеры
Евгений Романцов, Мария Лисовая, Виктория Агалакова, Иван Иванович, Елизавета Тайченачева, Евгений Миронов, Юлия Винс, Христина Блохина, Валерия Букина, Станислав Рогачев и др.

Описание

2071 год. Галактические войны разрушили Луну и изменили климат на Земле. Москва – в тропических лесах, а Нью-Йорк покрылся льдом. Над Москвой возвышается огромный инопланетный корабль – это стадион, на котором проходят зрелищные межгалактические соревнования по космоболу — игре, объединившей в себе спорт и гладиаторские бои. За матчами следит вся галактика. Играть в космобол могут только атлеты. Именно так называют тех, кто наделен необыкновенными способностями и может ими управлять. Космобол обожают все, кроме Антона, самого обычного парня, который всего лишь мечтает найти работу, чтобы помочь семье. Но однажды у него обнаруживают сверхспособности, и принимают в сборную. Теперь он игрок в космобол. Антон ещё не подозревает о том, какая роль уготована ему судьбой в этом матче, и что финальная игра станет сражением за Землю.

Возраст: 6+ (зрителям, достигшим 6 лет)
Дата российской премьеры: 27 августа 2020 , Наше Кино
Продолжительность: 01: 56: 42
Качество видео: CamRip
Перевод: Не требуется (русский)
Субтитры: Отсутствуют
Реклама: Присутствуют видео, аудио, текстовые вставки
Видео: AVC/H.264, 1280x536 (2.40: 1), ~2480 Kbps
Аудио: AC3, 2 ch, 192 Kbps
Общее
Уникальный идентификатор : 325197124371812858821246474745846685415 (0xF4A6B01E83F7492206911445943FDEE7)
Полное имя : D: 1Вратарь Галактики (2020).mkv
Формат : Matroska
Версия формата : Version 4
Размер файла : 2, 18 Гбайт
Продолжительность : 1 ч. 56 м.
Общий поток : 2 671 Кбит/сек
Дата кодирования : UTC 2020-08-31 14: 16: 01
Программа кодирования : mkvmerge v26.0.0 (\'In The Game\') 32-bit
Библиотека кодирования : libebml v1.3.6 + libmatroska v1.4.9/Lavf57.71.100
Видео
Идентификатор : 1
Формат : AVC
Формат/Информация : Advanced Video Codec
Профиль формата : High@L3.1
Настройки формата : CABAC/4 Ref Frames
Параметр CABAC формата : Да
Параметр RefFrames формата : 4 кадра
Идентификатор кодека : V_MPEG4/ISO/AVC
Продолжительность : 1 ч. 56 м.
Битрейт : 2 477 Кбит/сек
Ширина : 1 280 пикселей
Высота : 536 пикселей
Соотношение сторон : 2, 40: 1
Режим частоты кадров : Постоянный
Частота кадров : 23, 976 (24000/1001) кадра/сек
Цветовое пространство : YUV
Субдискретизация насыщенности : 4: 2: 0
Битовая глубина : 8 бит
Тип развёртки : Прогрессивная
Бит/(Пиксели*Кадры) : 0.151
Размер потока : 2, 02 Гбайт (93%)
Библиотека кодирования : x264 core 157 r2969 d4099dd
Настройки программы : cabac=1/ref=3/deblock=1: 0: 0/analyse=0x3: 0x113/me=hex/subme=7/psy=1/psy_rd=1.00: 0.00/mixed_ref=1/me_range=16/chroma_me=1/trellis=1/8x8dct=1/cqm=0/deadzone=21, 11/fast_pskip=1/chroma_qp_offset=-2/threads=17/lookahead_threads=2/sliced_threads=0/nr=0/decimate=1/interlaced=0/bluray_compat=0/constrained_intra=0/bframes=3/b_pyramid=2/b_adapt=1/b_bias=0/direct=1/weightb=1/open_gop=0/weightp=2/keyint=48/keyint_min=25/scenecut=0/intra_refresh=0/rc_lookahead=40/rc=crf/mbtree=1/crf=20.0/qcomp=0.60/qpmin=0/qpmax=69/qpstep=4/ip_ratio=1.40/aq=1: 1.00
Default : Да
Forced : Нет
Аудио
Идентификатор : 2
Формат : AC-3
Формат/Информация : Audio Coding 3
Коммерческое название : Dolby Digital
Идентификатор кодека : A_AC3
Продолжительность : 1 ч. 56 м.
Вид битрейта : Постоянный
Битрейт : 192 Кбит/сек
Каналы : 2 канала
Channel layout : L R
Частота : 48, 0 КГц
Частота кадров : 31, 250 кадров/сек (1536 SPF)
Метод сжатия : С потерями
Задержка видео : -21 мс.
Размер потока : 160 Мбайт (7%)
Service kind : Complete Main
Default : Да
Forced : Нет

Скриншоты для ознакомления



Все одноименные релизы в Клубе
Время раздачи: 24/7 (мультитрекерная раздача)
 
Уважаемый посетитель, Вы зашли на сайт как незарегистрированный пользователь. Мы рекомендуем Вам зарегистрироваться либо зайти на сайт под своим именем.

Другие новости по теме:

  • Я – вратарь / Der Goalie bin ig (2014) HDRip [VO] скачать через торрент бесплатно
  • Я – вратарь / Der Goalie bin ig (2014) BDRip [720p] [VO] скачать через торрент бесплатно
  • Я – вратарь / Der Goalie bin ig (2014) BDRip [720p] ATV скачать через торрент бесплатно
  • Дитрих Шульце-Мармелинг | Нойер. Вратарь мира (2018) [FB2]
  • Мария Парр | Вратарь и море (2019) [FB2]
  • Дмитрий Билик | Вратарь (2019) [FB2]
  • Лев Яшин. Вратарь моей мечты (2019) WEB-DL [H.264 / 1080p-LQ]
  • Лев Яшин. Вратарь моей мечты (2019) WEB-DL [H.264 / 720p-LQ]


  • Информация
    Посетители, находящиеся в группе Гости, не могут оставлять комментарии в данной новости.
    Главная страница | Регистрация | Добавить новость | Новое на сайте Copyright © 2019. bolt.mmix.club All Rights Reserved