Подписывайся на наш канал в Telegram https://t.me/torrentok и получи доступ к торрентам без ограничений!
. bolt.mmix.club
Авторские права
con...@...Показать
Вход на сайт
Логин:
Пароль:
 
Навигация по сайту
Популярные статьи

Торрент трекер | Скачать торрент | Скачать через Торрент | Скачать торрент бесплатно | Скачать торрент без регистрации Фильмы торрент скачать Именно так / Точь-в-точь / Aynen Aynen (2019) WEBRip [H.264 / 1080p-LQ] (сезон 1-3, серии 1-22 из 22) SesDizi [PR] торрент скачать бесплатно

Именно так / Точь-в-точь / Aynen Aynen (2019) WEBRip [H.264 / 1080p-LQ] (сезон 1-3, серии 1-22 из 22) SesDizi [PR] торрент скачать бесплатно

Фильмы торрент скачать
Именно так / Точь-в-точь / Aynen Aynen (2019) WEBRip [H.264 / 1080p-LQ] (сезон 1-3, серии 1-22 из 22) SesDizi [PR]Производство: Турция/Games Medya
Жанр: короткометражный, комедия
Режиссер: Юнус Озан Коркут, Осман Кая

Актеры
Нилпери Шахинкая, Ураз Каигилароглу, Керем Бюрсин, Серкан Сенгул, Лале Башар, Вурал Джейлан и др.

Описание

Сериал покажет веселые приключения Эмира и Ниль, рассказывая о взаимоотношениях между мужчиной и женщиной юмористическим и реалистичным языком. Эмир и Ниль увидят в некоторых ситуациях и поймут, что хотят показать себя с другой стороны в отношениях, но на самом деле они увидят свои настоящие мысли и перед лицом этого контраста они дадут зрителям сериала много моментов для смеха.


Продолжительность: ~00: 08: 00 серия
Качество видео: WEBRip
Перевод: Двуголосый любительский (SesDizi)
Видео: AVC/H.264, 1920x1080 (16: 9), ~1865 kbps
Аудио: AAC, 2 ch, 160 kbps
General
Unique ID : 97592256206822497799646067940309934051 (0x496B95B92E97736A4D60CDB0AEAD1FE3)
Complete name : G: Aynen Aynen.s01-03.WEBRip.SesDiziAynen Aynen.s01.e01.WEBRip1080p.mkv
Format : Matroska
Format version : Version 4
File size : 55.7 MiB
Duration : 3 min 50 s
Overall bit rate : 2 028 kb/s
Encoded date : UTC 2020-08-29 21: 01: 36
Writing application : mkvmerge v47.0.0 (\'Black Flag\') 64-bit
Writing library : libebml v1.3.10 + libmatroska v1.5.2
Video
ID : 1
Format : AVC
Format/Info : Advanced Video Codec
Format profile : High@L4
Format settings : CABAC/3 Ref Frames
Format settings, CABAC : Yes
Format settings, Reference fra : 3 frames
Codec ID : V_MPEG4/ISO/AVC
Duration : 3 min 50 s
Bit rate : 1 866 kb/s
Width : 1 920 pixels
Height : 1 080 pixels
Display aspect ratio : 16: 9
Frame rate mode : Constant
Frame rate : 25.000 FPS
Color space : YUV
Chroma subsampling : 4: 2: 0
Bit depth : 8 bits
Scan type : Progressive
Bits/(Pixel*Frame) : 0.036
Stream size : 51.3 MiB (92%)
Writing library : x264 core 155 r2901 7d0ff22
Default : Yes
Forced : No
Color range : Limited
Color primaries : BT.709
Transfer characteristics : BT.709
Matrix coefficients : BT.709
Audio
ID : 2
Format : AAC LC
Format/Info : Advanced Audio Codec Low Complexity
Codec ID : A_AAC-2
Duration : 3 min 50 s
Bit rate : 160 kb/s
Channel(s) : 2 channels
Channel layout : L R
Sampling rate : 44.1 kHz
Frame rate : 43.066 FPS (1024 SPF)
Compression mode : Lossy
Delay relative to video : -40 ms
Stream size : 4.40 MiB (8%)
Default : Yes
Forced : No

Скриншоты для ознакомления



Все одноименные релизы в Клубе
Время раздачи: с 11: 00 до 3: 00 (до появления первых 3-5 скачавших)
 
Уважаемый посетитель, Вы зашли на сайт как незарегистрированный пользователь. Мы рекомендуем Вам зарегистрироваться либо зайти на сайт под своим именем.

Другие новости по теме:

  • Именно так / Точь-в-точь / Aynen Aynen (2020) HDTVRip [H.264 / 720p-LQ] (сезон 4, серии 1-7 из 7) SesDizi [PR]


  • Информация
    Посетители, находящиеся в группе Гости, не могут оставлять комментарии в данной новости.
    Главная страница | Регистрация | Добавить новость | Новое на сайте Copyright © 2019. bolt.mmix.club All Rights Reserved