Подписывайся на наш канал в Telegram https://t.me/torrentok и получи доступ к торрентам без ограничений!
. bolt.mmix.club
Авторские права
con...@...Показать
Вход на сайт
Логин:
Пароль:
 
Навигация по сайту
Популярные статьи

Торрент трекер | Скачать торрент | Скачать через Торрент | Скачать торрент бесплатно | Скачать торрент без регистрации Фильмы торрент скачать Чукур / Cukur (2019) WEB-DLRip [H.264 / 720p-LQ] (сезон 3, серии 1-26 из 26) Котова [PR] торрент скачать бесплатно

Чукур / Cukur (2019) WEB-DLRip [H.264 / 720p-LQ] (сезон 3, серии 1-26 из 26) Котова [PR] торрент скачать бесплатно

Фильмы торрент скачать
Чукур / Cukur (2019) WEB-DLRip [H.264 / 720p-LQ] (сезон 3, серии 1-26 из 26) Котова [PR]Производство: Турция/Ay Yapım
Жанр: триллер, криминал, боевик
Режиссер: Синан Озтюрк

Актеры
Арас Булут Ийнемли, Эркан Колчак Кёстендиль, Онер Эркан, Рыза Коджаоглу, Кубилай Ака, Дамла Сонмез, Хазал Субаши, Джем Услу, Неджип Мемили, Бурак Дакак и др.

Описание

На окраине Стамбула расположен район Чукур. Многие годы этим районом управляет семья Кочовалы, и одно из главных их условий – не распространять наркотики. Однако появляется группа недовольных и они решают взять управление районом в свои руки. В это же время из Парижа возвращается младший сын семьи Кочовалы – Ямач, который покинул отчий дом много лет назад. Вместе с ним приезжает Сена - девушка, которой он клялся в любви. Но смогут ли молодые люди быть счастливы в Чукуре?


Продолжительность: ~02: 30: 00 серия
Качество видео: WEB-DLRip
Перевод: Одноголосый любительский (Ирина Котова)
Видео: AVC/H.264, 1280x720 (16: 9), ~1040 kbps
Аудио: AAC, 2 ch, 96 kbps
General
Unique ID : 297298413772567700869303072474911931533 (0xDFA9977CF34C07B679B603CBD346FC8D)
Complete name : E: Cukur.s03.WEB-DLRipCukur.s03.e01.WEB-DLRip720p.mkv
Format : Matroska
Format version : Version 4
File size : 1.19 GiB
Duration : 2 h 30 min
Overall bit rate : 1 134 kb/s
Encoded date : UTC 2020-08-28 22: 47: 59
Writing application : mkvmerge v47.0.0 (\'Black Flag\') 64-bit
Writing library : libebml v1.3.10 + libmatroska v1.5.2
Video
ID : 1
Format : AVC
Format/Info : Advanced Video Codec
Format profile : Main@L3.1
Format settings : CABAC/3 Ref Frames
Format settings, CABAC : Yes
Format settings, Reference fra : 3 frames
Codec ID : V_MPEG4/ISO/AVC
Duration : 2 h 29 min
Bit rate : 1 038 kb/s
Width : 1 280 pixels
Height : 720 pixels
Display aspect ratio : 16: 9
Frame rate mode : Constant
Frame rate : 25.000 FPS
Color space : YUV
Chroma subsampling : 4: 2: 0
Bit depth : 8 bits
Scan type : Progressive
Bits/(Pixel*Frame) : 0.045
Stream size : 1.09 GiB (91%)
Default : Yes
Forced : No
Color range : Limited
Color primaries : BT.709
Transfer characteristics : BT.709
Matrix coefficients : BT.709
Audio
ID : 2
Format : AAC LC
Format/Info : Advanced Audio Codec Low Complexity
Codec ID : A_AAC-2
Duration : 2 h 30 min
Bit rate : 96.0 kb/s
Channel(s) : 2 channels
Channel layout : L R
Sampling rate : 44.1 kHz
Frame rate : 43.066 FPS (1024 SPF)
Compression mode : Lossy
Delay relative to video : -80 ms
Stream size : 103 MiB (8%)
Default : Yes
Forced : No

Скриншоты для ознакомления



Все одноименные релизы в Клубе
Время раздачи: с 11: 00 до 3: 00 (до появления первых 3-5 скачавших)
 
Уважаемый посетитель, Вы зашли на сайт как незарегистрированный пользователь. Мы рекомендуем Вам зарегистрироваться либо зайти на сайт под своим именем.

Другие новости по теме:

  • Чукур / Cukur (2017) WEB-DLRip [H.264 / 720p-LQ] (сезон 1, серии 1-33 из 33) Котова [PR]
  • Чукур / Cukur (2018) WEB-DLRip [H.264 / 720p-LQ] (сезон 2, серии 1-34 из 34) Котова [PR]


  • Информация
    Посетители, находящиеся в группе Гости, не могут оставлять комментарии в данной новости.
    Главная страница | Регистрация | Добавить новость | Новое на сайте Copyright © 2019. bolt.mmix.club All Rights Reserved