Подписывайся на наш канал в Telegram https://t.me/torrentok и получи доступ к торрентам без ограничений!
. bolt.mmix.club
Авторские права
con...@...Показать
Вход на сайт
Логин:
Пароль:
 
Навигация по сайту
Популярные статьи

Торрент трекер | Скачать торрент | Скачать через Торрент | Скачать торрент бесплатно | Скачать торрент без регистрации Фильмы торрент скачать Фитнес (2020) WEBRip (сезон 4, серии 1-2 из 20) (обновляемая) торрент скачать бесплатно

Фитнес (2020) WEBRip (сезон 4, серии 1-2 из 20) (обновляемая) торрент скачать бесплатно

Фильмы торрент скачать
Фитнес (2020) WEBRip (сезон 4, серии 1-2 из 20) (обновляемая)Производство: Россия/СУПЕР продакшн, Киностудия Yellow, Black and White
Жанр: комедия
Режиссер: Антон Маслов, Кирилл Васильев

Актеры
Софья Зайка, Михаил Трухин, Татьяна Храмова, Роман Курцын, Алексей Демидов, Борис Дергачев, Марианна Шульц, Ольга Баранова, Анна Лауренская, Татьяна Сомова и др.

Описание

Ася возвращается в SUPERFIT, пройдя обучение в английской бизнес-школе. Теперь она занимает пост директора и старается соответствовать своей новой должности, но это не так просто, как ей казалось. Поэтому что ее, что сотрудников фитнес-центра, ждут глобальные перемены, которые приведут к необратимым последствиям. Также в их центр придет новая сотрудница, которая будет очень экстравагантна и эксцентрична…


Возраст: 16+ (зрителям, достигшим 16 лет)
Релиз от: Kuzmich
Продолжительность: ~00: 25: 00 серия
Качество видео: WEBRip
Видео: Xvid, 720x400 (16: 9), ~1900 Kbps
Аудио: AC3, 2 ch, 192 Kbps
Общее
Полное имя : G: Fitnes.S04.WEB-DLRip.25KuzmichFitnes.s04.e01.WEB-DLRip.25Kuzmich.avi
Формат : AVI
Формат/Информация : Audio Video Interleave
Размер файла : 350 Мбайт
Продолжительность : 23 м. 18 с.
Общий поток : 2 102 Кбит/сек
Программа кодирования : VirtualDubMod 1.5.10.3 |www.virtualdub-fr.org|| (build 2550/release)
Библиотека кодирования : VirtualDubMod build 2550/release
Видео
Идентификатор : 0
Формат : MPEG-4 Visual
Профиль формата : Advanced Simple@L5
Настройки формата : BVOP1
Параметр BVOP формата : 1
Параметр QPel формата : Нет
Параметр GMC формата : Без точки перехода
Параметр матрицы формата : Default (MPEG)
Идентификатор кодека : XVID
Идентификатор кодека/Подсказка : XviD
Продолжительность : 23 м. 18 с.
Битрейт : 1 900 Кбит/сек
Ширина : 720 пикселей
Высота : 400 пикселей
Соотношение сторон : 16: 9
Частота кадров : 25, 000 кадров/сек
Цветовое пространство : YUV
Субдискретизация насыщенности : 4: 2: 0
Битовая глубина : 8 бит
Тип развёртки : Прогрессивная
Метод сжатия : С потерями
Бит/(Пиксели*Кадры) : 0.264
Размер потока : 317 Мбайт (90%)
Библиотека кодирования : XviD 73
Аудио
Идентификатор : 1
Формат : AC-3
Формат/Информация : Audio Coding 3
Коммерческое название : Dolby Digital
Идентификатор кодека : 2000
Продолжительность : 23 м. 18 с.
Вид битрейта : Постоянный
Битрейт : 192 Кбит/сек
Каналы : 2 канала
Channel layout : L R
Частота : 48, 0 КГц
Частота кадров : 31, 250 кадров/сек (1536 SPF)
Метод сжатия : С потерями
Размер потока : 32, 0 Мбайт (9%)
Выравнивание : Разделение по промежуткам
Продолжительность промежутка : 40 мс. (1, 00 видеокадр)
Время предзагрузки промежутка : 500 мс.
Service kind : Complete Main
 
Уважаемый посетитель, Вы зашли на сайт как незарегистрированный пользователь. Мы рекомендуем Вам зарегистрироваться либо зайти на сайт под своим именем.

Другие новости по теме:

  • Фитнес (2019) WEBRip (сезон 2, серии 1-3 из 20) (обновляемая)
  • Фитнес (2019) WEBRip [H.264 / 720p-LQ] (сезон 2, серии 1-3 из 20) (обновляемая)
  • Фитнес (2020) WEBRip [H.264 / 1080p-LQ] (сезон 4, серии 1-2 из 20) (обновляемая)


  • Информация
    Посетители, находящиеся в группе Гости, не могут оставлять комментарии в данной новости.
    Главная страница | Регистрация | Добавить новость | Новое на сайте Copyright © 2019. bolt.mmix.club All Rights Reserved