Подписывайся на наш канал в Telegram https://t.me/torrentok и получи доступ к торрентам без ограничений!
. bolt.mmix.club
Авторские права
con...@...Показать
Вход на сайт
Логин:
Пароль:
 
Навигация по сайту
Популярные статьи

Торрент трекер | Скачать торрент | Скачать через Торрент | Скачать торрент бесплатно | Скачать торрент без регистрации Фильмы торрент скачать Наши котики / Наші котики / Lethal Kittens (2020) WEB-DL [H.264 / 1080p] [UKR] торрент скачать бесплатно

Наши котики / Наші котики / Lethal Kittens (2020) WEB-DL [H.264 / 1080p] [UKR] торрент скачать бесплатно

Фильмы торрент скачать
Наши котики / Наші котики / Lethal Kittens (2020) WEB-DL [H.264 / 1080p] [UKR]Производство: Украина, США, Канада/Bedlam Productions, Directory Films, Babylon\'13
Жанр: комедия
Режиссер: Владимир Тихий

Актеры
Дмитро Тубольцев, Stanislav Bzhezinskyi, Petro Mykytyuk, Vira Klymkovetska, Дмитрий Хомяк, Ярослав Федорчук, Сергей Солопай, Михаил Кукуюк, Volodymyr Barabanov, Владимир Беляев

Описание

2014 год. На украинскую землю пришел враг, поэтому пора ее защищать. Без опыта, без нормального оружия и продовольственного обеспечения, тысячи добровольцев ушли на фронт. И вот собрались вместе продавец цветов, футбольный тренер, инженер и актер. Однажды, во время боевого дежурства, которое должно было стать едва ли не самым скучным, с собратьями случилась неприятность.
Никто из группы не имеет боевого опыта, но это не станет преградой для масштабного поражения врага ... Храбрость, доблесть, немного гипноза и особенный юмор - прямые попадания для теплой встречи!


Возраст (Укр): 12+ (зрителям, достигшим 12 лет)
Релиз от: sergiyko
Продолжительность: 01: 50: 00
Качество видео: WEB-DL
Перевод: Отсутствует
Язык озвучки: украинский с русским
Субтитры: украинские на русский язык (hardsub)
Видео: AVC/H.264, 1920x1080, ~12.0 Mbps
Аудио: AAC, 2 ch, 128 KbpsНеполиткорректная военная комедия о буднях бойцов АТО Наши котики – детище режиссера и сценариста Владимира Тихого. В основу сюжета положены реальные истории, рассказанные добровольцами и бойцами ВСУ. Среди актеров, которые появятся в кадре, есть ветераны АТО. Так, Дмитрий Тубольцев до начала войны был актером одного из столичных театров. Сопродюсером ленты выступает Ульяна Супрун. По словам бывшей и.о. министра здравоохранения, юмор – одно из лучших средств борьбы со стрессом. Поэтому она призывает вместе смеяться опасности в лицо.
General
Unique ID : 94783255395186229150473568903178717403 (0x474E974A69D835D1AC3F8E19765B88DB)
Complete name : D: DocumentsTorrentsFILMSНаші котики.2020.1080p.WEB-DL.mkv
Format : Matroska
Format version : Version 4
File size : 9.17 GiB
Duration : 1 h 50 min
Overall bit rate : 11.9 Mb/s
Movie name : Наші котики 2020 by sergiyko
Encoded date : UTC 2020-08-23 22: 31: 00
Writing application : mkvmerge v47.0.0 (\'Black Flag\') 64-bit
Writing library : libebml v1.3.10 + libmatroska v1.5.2
Cover : Yes
Attachments : cover.jpeg
Video
ID : 1
Format : AVC
Format/Info : Advanced Video Codec
Format profile : High@L4.2
Format settings : CABAC/2 Ref Frames
Format settings, CABAC : Yes
Format settings, Reference : 2 frames
Codec ID : V_MPEG4/ISO/AVC
Duration : 1 h 50 min
Bit rate mode : Constant
Bit rate : 12.0 Mb/s
Width : 1 920 pixels
Height : 1 080 pixels
Display aspect ratio : 16: 9
Frame rate mode : Constant
Frame rate : 24.000 FPS
Color space : YUV
Chroma subsampling : 4: 2: 0
Bit depth : 8 bits
Scan type : Progressive
Bits/(Pixel*Frame) : 0.241
Stream size : 9.07 GiB (99%)
Title : Наші котики 2020
Language : Ukrainian
Default : Yes
Forced : No
Audio
ID : 2
Format : AAC LC
Format/Info : Advanced Audio Codec Low Complexity
Codec ID : A_AAC-2
Duration : 1 h 49 min
Bit rate : 128 kb/s
Channel(s) : 2 channels
Channel layout : L R
Sampling rate : 48.0 kHz
Frame rate : 46.875 FPS (1024 SPF)
Compression mode : Lossy
Delay relative to video : -125 ms
Stream size : 101 MiB (1%)
Title : Оригінал
Language : Ukrainian
Default : Yes
Forced : No

Скриншоты для ознакомления



Все одноименные релизы в Клубе
Время раздачи: с 13: 00 до 1: 00 (до появления первых 3-5 скачавших)
 
Уважаемый посетитель, Вы зашли на сайт как незарегистрированный пользователь. Мы рекомендуем Вам зарегистрироваться либо зайти на сайт под своим именем.

Другие новости по теме:

  • Стас Атасов | Чем шире наши морды, тем теснее наши ряды (2013) [PDF]
  • Наши матери, наши отцы / Unsere Mutter, unsere Vater (2013) BDRip [H.264 / 720p] [1-3 серии из 3]
  • Наши матери, наши отцы / Unsere Mutter, unsere Vater (2013) HDRip (сезон 1, серии 1-3 из 3) RG Paravozik
  • [Фотография] Наши Мешатели, или звери юзверей. Фотографии пользователей NoNaMe Club
  • [Фотография] Братья наши меньшие, красивые и не очень. Фотографии пользователей NoNaMe Club
  • Тальма Лобель | Теплая чашка в холодный день. Как физические ощущения влияют на наши решения (2014) [PDF, DOC, FB2] скачать через торрент бесплатно
  • VA - Наши Песни: Сделано В СССР (2015) [MP3|320 кб / с]<Поп, Диско> скачать через торрент бесплатно
  • Наши мультфильмы v1.2.4 [Ru] - лучшие советские и современные российские мультфильмы скачать через торрент бесплатно


  • Информация
    Посетители, находящиеся в группе Гости, не могут оставлять комментарии в данной новости.
    Главная страница | Регистрация | Добавить новость | Новое на сайте Copyright © 2019. bolt.mmix.club All Rights Reserved