Подписывайся на наш канал в Telegram https://t.me/torrentok и получи доступ к торрентам без ограничений!
. bolt.mmix.club
Авторские права
con...@...Показать
Вход на сайт
Логин:
Пароль:
 
Навигация по сайту
Популярные статьи

Торрент трекер | Скачать торрент | Скачать через Торрент | Скачать торрент бесплатно | Скачать торрент без регистрации Фильмы торрент скачать Вернись ко мне / Come Back to Me (2014) WEBRip [H.264 / 1080p-LQ] [VO] [PR] торрент скачать бесплатно

Вернись ко мне / Come Back to Me (2014) WEBRip [H.264 / 1080p-LQ] [VO] [PR] торрент скачать бесплатно

Фильмы торрент скачать
Вернись ко мне / Come Back to Me (2014) WEBRip [H.264 / 1080p-LQ] [VO] [PR]Производство: США/Base Productions, Idiot Savant Pictures
Жанр: Ужасы, фэнтези, триллер, детектив
Режиссер: Пол Лейден

Актеры
Кэти Уолдер, Джон Абрахамс, Andrew Beckham, Жанетт Бренч, Кэролайн Клементс, Лаура Гордон, Нэйтан Кийес, Мэтт Пассмор, Брайан Патакка, Стив Риззо

Описание

Молодожены Сара и Джонни переезжают в новый дом, а по соседству живёт немного странный парень Дел. Вскоре после переезда Сару начинают мучить страшные сны, в которых её с мужем жестоко убивают, и каждый раз она ужасе просыпается, и каждый раз оказывается, что это был просто сон.


Рейтинг MPAA: R (лицам до 17 лет обязательно присутствие взрослого)
Релиз от: Koenig
Продолжительность: 01: 36: 08
Качество видео: WEBRip
Перевод: Одноголосый любительский (Роман Коточигов-ViruseProject)
Субтитры: Английские (SRT)
Видео: AVC/H.264, 1920х1080, ~4870 Kbps
Аудио 1: AC3, 2 ch, 192 Kbps, русский (VO)
Аудио 2: AC3, 6 ch, 384 Kbps, английский (оригинал)
Общее
Уникальный идентификатор : 166280039722378833131161947199065842287 (0x7D185EEA7D4318D6FD34818C717C626F)
Полное имя : E: DownloadsCome.Back.to.Me.2014.NF.WEBRip.1080p.mkv
Формат : Matroska
Версия формата : Version 4
Размер файла : 3, 65 Гбайт
Продолжительность : 1 ч. 36 м.
Режим общего битрейта : Переменный
Общий поток : 5 434 Кбит/сек
Название фильма : Come.Back.to.Me.2014.NF.WEBRip.1080p
Дата кодирования : UTC 2020-08-27 11: 56: 54
Программа кодирования : mkvmerge v46.0.0 (\'No Deeper Escape\') 32-bit
Библиотека кодирования : libebml v1.3.10 + libmatroska v1.5.2
Обложка : Yes
Attachments : cover.jpg
Видео
Идентификатор : 1
Формат : AVC
Формат/Информация : Advanced Video Codec
Профиль формата : Main@L4
Настройки формата : CABAC/3 Ref Frames
Параметр CABAC формата : Да
Параметр RefFrames формата : 3 кадра
Идентификатор кодека : V_MPEG4/ISO/AVC
Продолжительность : 1 ч. 36 м.
Вид битрейта : Переменный
Битрейт : 4 870 Кбит/сек
Максимальный битрейт : 7 305 Кбит/сек
Ширина : 1 920 пикселей
Высота : 1 080 пикселей
Соотношение сторон : 16: 9
Режим частоты кадров : Постоянный
Частота кадров : 23, 976 (24000/1001) кадра/сек
Цветовое пространство : YUV
Субдискретизация насыщенности : 4: 2: 0
Битовая глубина : 8 бит
Тип развёртки : Прогрессивная
Бит/(Пиксели*Кадры) : 0.098
Размер потока : 3, 26 Гбайт (89%)
Заголовок : NTG
Библиотека кодирования : x264 core 118
Настройки программы : cabac=1/ref=3/deblock=1: 0: 0/analyse=0x1: 0x111/me=umh/subme=10/psy=1/psy_rd=1.00: 0.00/mixed_ref=1/me_range=24/chroma_me=1/trellis=2/8x8dct=0/cqm=0/deadzone=21, 11/fast_pskip=1/chroma_qp_offset=-2/threads=8/sliced_threads=0/nr=0/decimate=1/interlaced=0/bluray_compat=0/constrained_intra=0/bframes=2/b_pyramid=0/b_adapt=2/b_bias=0/direct=3/weightb=1/open_gop=0/weightp=2/keyint=48/keyint_min=25/scenecut=0/intra_refresh=0/rc_lookahead=0/rc=2pass/mbtree=1/bitrate=4870/ratetol=1.0/qcomp=0.50/qpmin=6/qpmax=51/qpstep=4/cplxblur=20.0/qblur=0.5/vbv_maxrate=7305/vbv_bufsize=9740/nal_hrd=vbr/ip_ratio=1.40/aq=1: 1.00
Язык : English
Default : Да
Forced : Нет
Аудио #1
Идентификатор : 2
Формат : AC-3
Формат/Информация : Audio Coding 3
Коммерческое название : Dolby Digital
Идентификатор кодека : A_AC3
Продолжительность : 1 ч. 35 м.
Вид битрейта : Постоянный
Битрейт : 192 Кбит/сек
Каналы : 2 канала
Channel layout : L R
Частота : 48, 0 КГц
Частота кадров : 31, 250 кадров/сек (1536 SPF)
Метод сжатия : С потерями
Размер потока : 131 Мбайт (3%)
Заголовок : VO - Коточигов
Язык : Russian
Service kind : Complete Main
Default : Да
Forced : Нет
Аудио #2
Идентификатор : 3
Формат : AC-3
Формат/Информация : Audio Coding 3
Коммерческое название : Dolby Digital
Идентификатор кодека : A_AC3
Продолжительность : 1 ч. 36 м.
Вид битрейта : Постоянный
Битрейт : 384 Кбит/сек
Каналы : 6 каналов
Channel layout : L R C LFE Ls Rs
Частота : 48, 0 КГц
Частота кадров : 31, 250 кадров/сек (1536 SPF)
Метод сжатия : С потерями
Размер потока : 264 Мбайт (7%)
Заголовок : Original
Язык : English
Service kind : Complete Main
Default : Нет
Forced : Нет
Текст
Идентификатор : 4
Формат : UTF-8
Идентификатор кодека : S_TEXT/UTF8
Идентификатор кодека/Информация : UTF-8 Plain Text
Продолжительность : 1 ч. 32 м.
Битрейт : 37 бит/сек
Count of elements : 965
Размер потока : 25, 1 Кбайт (0%)
Заголовок : SRT
Язык : English
Default : Нет
Forced : Нет

Скриншоты для ознакомления



Все одноименные релизы в Клубе
Время раздачи: 24/7 (мультитрекерная раздача)
 
Уважаемый посетитель, Вы зашли на сайт как незарегистрированный пользователь. Мы рекомендуем Вам зарегистрироваться либо зайти на сайт под своим именем.

Другие новости по теме:

  • Вернись ко мне / Come Back to Me (2014) DVDRip [H.264] [VO] скачать через торрент бесплатно
  • Вернись ко мне / Come Back to Me (2014) WEB-DLRip [H.264] [VO] скачать через торрент бесплатно
  • Вернись, моя любовь / Lover Come Back (1961) DVDRip
  • Вернись, моя любовь / Lover Come Back (1961) BDRip [H.264]


  • Информация
    Посетители, находящиеся в группе Гости, не могут оставлять комментарии в данной новости.
    Главная страница | Регистрация | Добавить новость | Новое на сайте Copyright © 2019. bolt.mmix.club All Rights Reserved