Подписывайся на наш канал в Telegram https://t.me/torrentok и получи доступ к торрентам без ограничений!
. bolt.mmix.club
Авторские права
con...@...Показать
Вход на сайт
Логин:
Пароль:
 
Навигация по сайту
Популярные статьи

Торрент трекер | Скачать торрент | Скачать через Торрент | Скачать торрент бесплатно | Скачать торрент без регистрации Фильмы торрент скачать Непобедимый Король (Вонг Фэй-Хун: Непобедимый король) / The King Is Invincible (2019) WEB-DLRip [VO] торрент скачать бесплатно

Непобедимый Король (Вонг Фэй-Хун: Непобедимый король) / The King Is Invincible (2019) WEB-DLRip [VO] торрент скачать бесплатно

Фильмы торрент скачать
Непобедимый Король (Вонг Фэй-Хун: Непобедимый король) / The King Is Invincible (2019) WEB-DLRip [VO]Производство: Китай, Beijing Qishuyouyu Media
Жанр: Боевик
Режиссер: Чоу Синьюй, Чжан Юнган

Актеры
Сюэ Цзянтао, Ян Цяньлун, Ма Яояо, Джейсон Чжэн, Жуй Даньни, Си Хунбо, Сунь Иньинь, Чжэн Хаотянь, Лян Ао, Сунь Пэнсян

Описание

В Гуанчжоу должна пройти международная выставка. Сама императрица отправила трех имперских стражей, сопроводить на выставку национальное достояние - картину Черный Дракон. Однако стражи были убиты, а картина похищена. За расследование берется знаменитый мастер Вон Фэйхун.


Релиз от: Rip by vitolinform
Продолжительность: 01: 30: 16
Качество видео: WEB-DLRip
Перевод: Одноголосый любительский (Виктор Береговых)
Субтитры: Английские, русские - отдельными файлами. Китайские - hardsub (неотключаемые)
Видео: Xvid, 720x304, ~1696 kbps
Аудио 1: AC3, 2 ch, 224 Кbps | Русский (VO, В.Береговых)
Аудио 2: AC3, 2 ch, 192 Кbps | Китайский
Аудио 3: AC3, 2 ch, 192 Кbps | Вьетнамский
Общее
Полное имя : C: Nepobedimyj.korol.2019.WEB-DLRipNepobedimyj.korol.2019.WEB-DLRip.avi
Формат : AVI
Формат/Информация : Audio Video Interleave
Размер файла : 1, 46 Гбайт
Продолжительность : 1 ч. 30 м.
Общий поток : 2 322 Кбит/сек
Название фильма : Непобедимый Король/The King Is Invincible (2019) WEB-DLRip
Режиссёр : Чоу Синьюй/Chou Xin-Yu, Чжан Юнган/Zhang Yong-Gang
Программа кодирования : VirtualDubMod 1.5.10.2 (build 2542/release)
Видео
Идентификатор : 0
Формат : MPEG-4 Visual
Профиль формата : Advanced Simple@L5
Настройки формата : BVOP1
Параметр BVOP формата : 1
Параметр QPel формата : Нет
Параметр GMC формата : Без точки перехода
Параметр матрицы формата : Default (MPEG)
Идентификатор кодека : XVID
Идентификатор кодека/Подсказка : XviD
Продолжительность : 1 ч. 30 м.
Битрейт : 1 696 Кбит/сек
Ширина : 720 пикселей
Высота : 304 пикселя
Соотношение сторон : 2, 35: 1
Частота кадров : 24, 000 кадра/сек
Цветовое пространство : YUV
Субдискретизация насыщенности : 4: 2: 0
Битовая глубина : 8 бит
Тип развёртки : Прогрессивная
Метод сжатия : С потерями
Бит/(Пиксели*Кадры) : 0.323
Размер потока : 1, 07 Гбайт (73%)
Библиотека кодирования : XviD 69
Аудио #1
Идентификатор : 1
Формат : AC-3
Формат/Информация : Audio Coding 3
Коммерческое название : Dolby Digital
Идентификатор кодека : 2000
Продолжительность : 1 ч. 30 м.
Вид битрейта : Постоянный
Битрейт : 224 Кбит/сек
Каналы : 2 канала
Channel layout : L R
Частота : 48, 0 КГц
Частота кадров : 31, 250 кадров/сек (1536 SPF)
Метод сжатия : С потерями
Размер потока : 145 Мбайт (10%)
Выравнивание : Разделение по промежуткам
Продолжительность промежутка : 42 мс. (1, 00 видеокадр)
Время предзагрузки промежутка : 500 мс.
Заголовок : Russian (VO, Виктор Береговых)
Service kind : Complete Main
Аудио #2
Идентификатор : 2
Формат : AC-3
Формат/Информация : Audio Coding 3
Коммерческое название : Dolby Digital
Идентификатор кодека : 2000
Продолжительность : 1 ч. 30 м.
Вид битрейта : Постоянный
Битрейт : 192 Кбит/сек
Каналы : 2 канала
Channel layout : L R
Частота : 48, 0 КГц
Частота кадров : 31, 250 кадров/сек (1536 SPF)
Метод сжатия : С потерями
Размер потока : 124 Мбайт (8%)
Выравнивание : Разделение по промежуткам
Продолжительность промежутка : 42 мс. (1, 00 видеокадр)
Время предзагрузки промежутка : 500 мс.
Заголовок : Chinese
Service kind : Complete Main
Аудио #3
Идентификатор : 3
Формат : AC-3
Формат/Информация : Audio Coding 3
Коммерческое название : Dolby Digital
Идентификатор кодека : 2000
Продолжительность : 1 ч. 30 м.
Вид битрейта : Постоянный
Битрейт : 192 Кбит/сек
Каналы : 2 канала
Channel layout : L R
Частота : 48, 0 КГц
Частота кадров : 31, 250 кадров/сек (1536 SPF)
Метод сжатия : С потерями
Размер потока : 124 Мбайт (8%)
Выравнивание : Разделение по промежуткам
Продолжительность промежутка : 42 мс. (1, 00 видеокадр)
Время предзагрузки промежутка : 500 мс.
Заголовок : Vietnamese
Service kind : Complete Main

Скриншоты для ознакомления



Все одноименные релизы в Клубе
Время раздачи: 24/7 (мультитрекерная раздача) (до появления первых 3-5 скачавших)
 
Уважаемый посетитель, Вы зашли на сайт как незарегистрированный пользователь. Мы рекомендуем Вам зарегистрироваться либо зайти на сайт под своим именем.

Другие новости по теме:

  • Непобедимый Король (Вонг Фэй-Хун: Непобедимый король) / The King Is Invincible (2019) WEB-DL [H.264 / 1080p-LQ] [VO]


  • Информация
    Посетители, находящиеся в группе Гости, не могут оставлять комментарии в данной новости.
    Главная страница | Регистрация | Добавить новость | Новое на сайте Copyright © 2019. bolt.mmix.club All Rights Reserved