Подписывайся на наш канал в Telegram https://t.me/torrentok и получи доступ к торрентам без ограничений!
. bolt.mmix.club
Авторские права
con...@...Показать
Вход на сайт
Логин:
Пароль:
 
Навигация по сайту
Популярные статьи

Торрент трекер | Скачать торрент | Скачать через Торрент | Скачать торрент бесплатно | Скачать торрент без регистрации Фильмы торрент скачать Непобедимый Король (Вонг Фэй-Хун: Непобедимый король) / The King Is Invincible (2019) WEB-DL [H.264 / 1080p-LQ] [VO] торрент скачать бесплатно

Непобедимый Король (Вонг Фэй-Хун: Непобедимый король) / The King Is Invincible (2019) WEB-DL [H.264 / 1080p-LQ] [VO] торрент скачать бесплатно

Фильмы торрент скачать
Непобедимый Король (Вонг Фэй-Хун: Непобедимый король) / The King Is Invincible (2019) WEB-DL [H.264 / 1080p-LQ] [VO]Производство: Китай, Beijing Qishuyouyu Media
Жанр: Боевик
Режиссер: Чоу Синьюй, Чжан Юнган

Актеры
Сюэ Цзянтао, Ян Цяньлун, Ма Яояо, Джейсон Чжэн, Жуй Даньни, Си Хунбо, Сунь Иньинь, Чжэн Хаотянь, Лян Ао, Сунь Пэнсян

Описание

В Гуанчжоу должна пройти международная выставка. Сама императрица отправила трех имперских стражей, сопроводить на выставку национальное достояние - картину Черный Дракон. Однако стражи были убиты, а картина похищена. За расследование берется знаменитый мастер Вон Фэйхун.


Релиз от: vitolinform
Продолжительность: 01: 30: 16
Качество видео: WEB-DL
Перевод: Одноголосый любительский (Виктор Береговых)
Субтитры: Английские, русские. Китайские - hardsub (неотключаемые)
Видео: AVC/H.264, 1920x800, ~4182 kbps
Аудио 1: AC3, 2 ch, 224 Кbps | Русский (VO, В.Береговых)
Аудио 2: MP3, 2 ch, 320 Кbps | Вьетнамский
Аудио 3: AАC, 2 ch, 125 Кbps | Китайский
Общее
Уникальный идентификатор : 300005077190895170795734595008512323208 (0xE1B2E04C382704BC1944F0F4A0F2EE88)
Полное имя : C: The.King.is.Invincible.2019.WEB-DL.1080P.mkv
Формат : Matroska
Версия формата : Version 4
Размер файла : 3, 06 Гбайт
Продолжительность : 1 ч. 30 м.
Общий поток : 4 854 Кбит/сек
Дата кодирования : UTC 2020-08-29 09: 01: 26
Программа кодирования : mkvmerge v42.0.0 (\'Overtime\') 32-bit
Библиотека кодирования : libebml v1.3.10 + libmatroska v1.5.2
Видео
Идентификатор : 1
Формат : AVC
Формат/Информация : Advanced Video Codec
Профиль формата : High@L4
Настройки формата : CABAC/4 Ref Frames
Параметр CABAC формата : Да
Параметр RefFrames формата : 4 кадра
Идентификатор кодека : V_MPEG4/ISO/AVC
Продолжительность : 1 ч. 30 м.
Битрейт : 4 182 Кбит/сек
Ширина : 1 920 пикселей
Высота : 800 пикселей
Соотношение сторон : 2, 40: 1
Режим частоты кадров : Переменный
Частота кадров : 24, 728 кадров/сек
Цветовое пространство : YUV
Субдискретизация насыщенности : 4: 2: 0
Битовая глубина : 8 бит
Тип развёртки : Прогрессивная
Бит/(Пиксели*Кадры) : 0.110
Размер потока : 2, 64 Гбайт (86%)
Заголовок : Непобедимый Король/The King Is Invincible (2019) WEB-DL (1080p)
Язык : Chinese
Default : Да
Forced : Да
Аудио #1
Идентификатор : 2
Формат : AC-3
Формат/Информация : Audio Coding 3
Коммерческое название : Dolby Digital
Идентификатор кодека : A_AC3
Продолжительность : 1 ч. 30 м.
Вид битрейта : Постоянный
Битрейт : 224 Кбит/сек
Каналы : 2 канала
Channel layout : L R
Частота : 48, 0 КГц
Частота кадров : 31, 250 кадров/сек (1536 SPF)
Метод сжатия : С потерями
Размер потока : 145 Мбайт (5%)
Заголовок : VO Виктор Береговых
Язык : Russian
Service kind : Complete Main
Default : Да
Forced : Да
Аудио #2
Идентификатор : 3
Формат : MPEG Audio
Версия формата : Version 1
Профиль формата : Layer 3
Настройки формата : Joint stereo
Идентификатор кодека : A_MPEG/L3
Идентификатор кодека/Подсказка : MP3
Продолжительность : 1 ч. 30 м.
Вид битрейта : Постоянный
Битрейт : 320 Кбит/сек
Каналы : 2 канала
Частота : 44, 1 КГц
Частота кадров : 38, 281 кадров/сек (1152 SPF)
Метод сжатия : С потерями
Размер потока : 207 Мбайт (7%)
Заголовок : ViE@ZiN
Язык : Vietnamese
Default : Нет
Forced : Нет
Аудио #3
Идентификатор : 4
Формат : AAC LC
Формат/Информация : Advanced Audio Codec Low Complexity
Идентификатор кодека : A_AAC-2
Продолжительность : 1 ч. 30 м.
Битрейт : 125 Кбит/сек
Каналы : 2 канала
Channel layout : L R
Частота : 44, 1 КГц
Частота кадров : 43, 066 кадра/сек (1024 SPF)
Метод сжатия : С потерями
Размер потока : 80, 5 Мбайт (3%)
Язык : Chinese
Default : Нет
Forced : Нет
Текст #1
Идентификатор : 5
Формат : UTF-8
Идентификатор кодека : S_TEXT/UTF8
Идентификатор кодека/Информация : UTF-8 Plain Text
Продолжительность : 1 ч. 25 м.
Битрейт : 45 бит/сек
Count of elements : 848
Размер потока : 28, 4 Кбайт (0%)
Заголовок : Виктор Береговых
Язык : Russian
Default : Нет
Forced : Нет
Текст #2
Идентификатор : 6
Формат : ASS
Идентификатор кодека : S_TEXT/ASS
Идентификатор кодека/Информация : Advanced Sub Station Alpha
Продолжительность : 1 ч. 27 м.
Битрейт : 101 бит/сек
Count of elements : 1030
Метод сжатия : Без потерь
Размер потока : 64, 7 Кбайт (0%)
Язык : Vietnamese
Default : Нет
Forced : Нет

Скриншоты для ознакомления



Все одноименные релизы в Клубе
Время раздачи: 24/7 (мультитрекерная раздача) (до появления первых 3-5 скачавших)
 
Уважаемый посетитель, Вы зашли на сайт как незарегистрированный пользователь. Мы рекомендуем Вам зарегистрироваться либо зайти на сайт под своим именем.

Другие новости по теме:

  • Непобедимый Король (Вонг Фэй-Хун: Непобедимый король) / The King Is Invincible (2019) WEB-DLRip [VO]


  • Информация
    Посетители, находящиеся в группе Гости, не могут оставлять комментарии в данной новости.
    Главная страница | Регистрация | Добавить новость | Новое на сайте Copyright © 2019. bolt.mmix.club All Rights Reserved