Подписывайся на наш канал в Telegram https://t.me/torrentok и получи доступ к торрентам без ограничений!
. bolt.mmix.club
Авторские права
con...@...Показать
Вход на сайт
Логин:
Пароль:
 
Навигация по сайту
Популярные статьи

Торрент трекер | Скачать торрент | Скачать через Торрент | Скачать торрент бесплатно | Скачать торрент без регистрации Фильмы торрент скачать А потом мы танцевали / And then we danced (2019) WEB-DLRip [VO] торрент скачать бесплатно

А потом мы танцевали / And then we danced (2019) WEB-DLRip [VO] торрент скачать бесплатно

Фильмы торрент скачать
А потом мы танцевали / And then we danced (2019) WEB-DLRip [VO]Производство: Швеция, Грузия, Франция/AMA Productions, French Quarter Film, Inland Film, Konstnärsnämnden, L\'Aide aux Cinémas du Monde, Région Ile-de-France, RMV Film , Svenska Filminstitutet (SFI), Sveriges Television (SVT), Takes Film
Жанр: Драма, Мелодрама
Режиссер: Леван Акин

Актеры
Леван Гелбахиани, Бачи Валишвили, Ана Джавакишвили, Каха Гогидзе, Ана Махарадзе, Нино Габисония, Леван Габрава, Dachi Babunashvili, Saba Abashidze, Giorgi Aladashvili

Описание

Мераб с детства танцует в Национальном грузинском ансамбле со своей партнершей Мари. Его жизнь радикально меняется, когда он влюбляется в нового артиста труппы Ираклия.


Продолжительность: 01: 53: 07
Качество видео: WEB-DLRip
Перевод: Одноголосый любительский
Субтитры: Русские, английские
Видео: Xvid, 704x400, ~1642 Kbps
Аудио 1: AC3, 2 ch, 192 Kbps - Русский (VO - Анатолий Ашмарин)
Аудио 2: AC3, 1 ch, 192 Kbps - Русский (VO - женский, отдельным файлом)
Аудио 3: AC3, 2 ch, 192 Kbps - Грузинский (отдельным файлом)
Общее
Полное имя : C: UsersиванDesktopКИНОА потом мы танцевали (2019, Груз-Швец-Фран, драм-мелодр-хореог, АВИ , 1.75Гб)А потом мы танцевалиА_потом_мы_танцевали.avi
Формат : AVI
Формат/Информация : Audio Video Interleave
Размер файла : 1, 46 Гбайт
Продолжительность : 1 ч. 53 м.
Общий поток : 1843 Кбит/сек
Программа кодирования : VirtualDubMod 1.5.10.3 |www.virtualdub-fr.org|| (build 2550/release)
Библиотека кодирования : VirtualDubMod build 2550/release
Видео
Идентификатор : 0
Формат : MPEG-4 Visual
Профиль формата : Advanced Simple@L5
Настройки формата : BVOP2/Custom Matrix
Параметр BVOP формата : 2
Параметр QPel формата : Нет
Параметр GMC формата : Без точки перехода
Параметр матрицы формата : Выборочная
Идентификатор кодека : XVID
Идентификатор кодека/Подсказка : XviD
Продолжительность : 1 ч. 53 м.
Битрейт : 1642 Кбит/сек
Ширина : 704 пикселя
Высота : 400 пикселей
Соотношение сторон : 16: 9
Частота кадров : 25, 000 кадров/сек
Цветовое пространство : YUV
Субдискретизация насыщенности : 4: 2: 0
Битовая глубина : 8 бит
Тип развёртки : Прогрессивная
Метод сжатия : С потерями
Бит/(Пиксели*Кадры) : 0.233
Размер потока : 1, 30 Гбайт (89%)
Библиотека кодирования : XviD 73
Аудио
Идентификатор : 1
Формат : AC-3
Формат/Информация : Audio Coding 3
Идентификатор кодека : 2000
Продолжительность : 1 ч. 53 м.
Вид битрейта : Постоянный
Битрейт : 192 Кбит/сек
Каналы : 2 канала
Расположение каналов : Front: L R
Частота : 48, 0 КГц
Частота кадров : 31, 250 кадров/сек (1536 SPF)
Битовая глубина : 16 бит
Метод сжатия : С потерями
Размер потока : 155 Мбайт (10%)
Выравнивание : Разделение по промежуткам
Продолжительность промежутка : 40 мс. (1, 00 видеокадр)
Время предзагрузки промежутка : 500 мс.
ServiceKind/String : Complete Main
Общее
Полное имя : C: UsersиванDesktopКИНОМои раздачиА потом мы танцевали (2019, Груз-Швец-Фран, драм-мелодр-хореог, АВИ , 1.75Гб)А потом мы танцевалиА_потом_мы_танцевали (VO_женский).ac3
Формат : AC-3
Формат/Информация : Audio Coding 3
Размер файла : 155 Мбайт
Продолжительность : 1 ч. 53 м.
Режим общего битрейта : Постоянный
Общий поток : 192 Кбит/сек
Аудио
Формат : AC-3
Формат/Информация : Audio Coding 3
Продолжительность : 1 ч. 53 м.
Вид битрейта : Постоянный
Битрейт : 192 Кбит/сек
Каналы : 1 канал
Расположение каналов : Front: C
Частота : 48, 0 КГц
Частота кадров : 31, 250 кадров/сек (1536 SPF)
Битовая глубина : 16 бит
Метод сжатия : С потерями
Размер потока : 155 Мбайт (100%)
ServiceKind/String : Complete Main
Общее
Полное имя : C: UsersиванDesktopКИНОМои раздачиА потом мы танцевали (2019, Груз-Швец-Фран, драм-мелодр-хореог, АВИ , 1.75Гб)А потом мы танцевалиА_потом_мы_танцевали (Грузинский).ac3
Формат : AC-3
Формат/Информация : Audio Coding 3
Размер файла : 155 Мбайт
Продолжительность : 1 ч. 53 м.
Режим общего битрейта : Постоянный
Общий поток : 192 Кбит/сек
Аудио
Формат : AC-3
Формат/Информация : Audio Coding 3
Продолжительность : 1 ч. 53 м.
Вид битрейта : Постоянный
Битрейт : 192 Кбит/сек
Каналы : 2 канала
Расположение каналов : Front: L R
Частота : 48, 0 КГц
Частота кадров : 31, 250 кадров/сек (1536 SPF)
Битовая глубина : 16 бит
Метод сжатия : С потерями
Размер потока : 155 Мбайт (100%)
ServiceKind/String : Complete Main
 
Уважаемый посетитель, Вы зашли на сайт как незарегистрированный пользователь. Мы рекомендуем Вам зарегистрироваться либо зайти на сайт под своим именем.

Другие новости по теме:

  • А потом мы танцевали / And Then We Danced (2019) WEBRip [H.264 / 1080p-LQ] [VO] [PR]


  • Информация
    Посетители, находящиеся в группе Гости, не могут оставлять комментарии в данной новости.
    Главная страница | Регистрация | Добавить новость | Новое на сайте Copyright © 2019. bolt.mmix.club All Rights Reserved