Подписывайся на наш канал в Telegram https://t.me/torrentok и получи доступ к торрентам без ограничений!
. bolt.mmix.club
Авторские права
con...@...Показать
Вход на сайт
Логин:
Пароль:
 
Навигация по сайту
Популярные статьи

Торрент трекер | Скачать торрент | Скачать через Торрент | Скачать торрент бесплатно | Скачать торрент без регистрации Фильмы торрент скачать Чужой билет / Bounce (2000) BDRip [H.264 / 720p-LQ] торрент скачать бесплатно

Чужой билет / Bounce (2000) BDRip [H.264 / 720p-LQ] торрент скачать бесплатно

Фильмы торрент скачать
Чужой билет / Bounce (2000) BDRip [H.264 / 720p-LQ]Производство: США/Miramax Films
Жанр: Драма, Мелодрама
Режиссер: Дон Рус
Продюсер: Майкл Бесман, Стив Голин, Алан С. Бломквист

Актеры
Бен Аффлек, Гвинет Пэлтроу, Наташа Хенстридж, Джо Мортон, Тони Голдуин, Алекс Д. Линц, Джонни Галэки, Дженнифер Грей, Эдвард Эдвардс, Лиза Карпентер-Прюитт

Описание

В канун Рождества неисправимый ловелас Бадди Эмарал, подцепив в аэропорту красотку, уступает свой авиабилет мужчине, спешащему домой к семье. И этот самолет разбивается. Проходит время, и Бадди решает поехать к вдове погибшего, чтобы как-то помочь ей.
Он хочет загладить свою вину, но, познакомившись с Эбби и её детьми, впервые влюбляется по-настоящему. И теперь не знает, как рассказать ей, что он и есть тот, кто должен был лететь в злосчастном самолёте.


Возраст: 16+ (зрителям, достигшим 16 лет)
Рейтинг MPAA: PG-13 (детям до 13 лет просмотр нежелателен)
Релиз от: Охрана (NNMCLUB)
Продолжительность: 01: 46: 32
Качество видео: BDRip
Перевод: Дублированный, Мосфильм-Мастер
Субтитры: Русские, английские
Видео: AVC/H.264, 1280x720, ~3050 Kbps
Аудио 1: AC3, 6 ch, 384 Kbps, 48.0 kHz – Русский
Аудио 2: AC3, 6 ch, 384 Kbps, 48.0 kHz – Английский
Общее
Уникальный идентификатор : 237265049933521629850058415761899350971 (0xB27F962115FB1EB781C39717AB736BBB)
Полное имя : D: DownloadsЧужой билет. 2000. NNMCLUB.mkv
Формат : Matroska
Версия формата : Version 4/Version 2
Размер файла : 2, 84 Гбайт
Продолжительность : 1 ч. 46 м.
Общий поток : 3820 Кбит/сек
Дата кодирования : UTC 2020-08-30 08: 48: 52
Программа кодирования : mkvmerge v7.9.0 (\'Birds\') 64bit
Библиотека кодирования : libebml v1.3.1 + libmatroska v1.4.2
Видео
Идентификатор : 1
Формат : AVC
Формат/Информация : Advanced Video Codec
Профиль формата : High@L4.1
Настройки формата : CABAC/9 Ref Frames
Параметр CABAC формата : Да
Параметр RefFrames формата : 9 кадров
Идентификатор кодека : V_MPEG4/ISO/AVC
Продолжительность : 1 ч. 46 м.
Битрейт : 3050 Кбит/сек
Ширина : 1280 пикселей
Высота : 720 пикселей
Соотношение сторон : 16: 9
Режим частоты кадров : Постоянный
Частота кадров : 23, 976 (24000/1001) кадра/сек
Цветовое пространство : YUV
Субдискретизация насыщенности : 4: 2: 0
Битовая глубина : 8 бит
Тип развёртки : Прогрессивная
Бит/(Пиксели*Кадры) : 0.138
Размер потока : 2, 27 Гбайт (80%)
Заголовок : Bounce
Библиотека кодирования : x264 core 146 r2538 121396c
Настройки программы : cabac=1/ref=9/deblock=1: -1: -1/analyse=0x3: 0x113/me=umh/subme=10/psy=1/psy_rd=1.00: 0.10/mixed_ref=1/me_range=32/chroma_me=1/trellis=2/8x8dct=1/cqm=0/deadzone=21, 11/fast_pskip=0/chroma_qp_offset=-3/threads=6/lookahead_threads=1/sliced_threads=0/nr=0/decimate=0/interlaced=0/bluray_compat=0/constrained_intra=0/bframes=8/b_pyramid=2/b_adapt=2/b_bias=0/direct=3/weightb=1/open_gop=0/weightp=2/keyint=250/keyint_min=25/scenecut=40/intra_refresh=0/rc_lookahead=60/rc=2pass/mbtree=1/bitrate=3050/ratetol=1.0/qcomp=0.60/qpmin=0/qpmax=69/qpstep=4/cplxblur=20.0/qblur=0.5/vbv_maxrate=14000/vbv_bufsize=14000/nal_hrd=none/filler=0/ip_ratio=1.40/aq=1: 1.00
Язык : English
Default : Да
Forced : Нет
Аудио #1
Идентификатор : 2
Формат : AC-3
Формат/Информация : Audio Coding 3
Идентификатор кодека : A_AC3
Продолжительность : 1 ч. 46 м.
Вид битрейта : Постоянный
Битрейт : 384 Кбит/сек
Каналы : 6 каналов
Расположение каналов : Front: L C R, Side: L R, LFE
Частота : 48, 0 КГц
Частота кадров : 31, 250 кадров/сек (1536 SPF)
Битовая глубина : 16 бит
Метод сжатия : С потерями
Размер потока : 293 Мбайт (10%)
Заголовок : Дубляж
Язык : Russian
ServiceKind/String : Complete Main
Default : Да
Forced : Нет
Аудио #2
Идентификатор : 3
Формат : AC-3
Формат/Информация : Audio Coding 3
Идентификатор кодека : A_AC3
Продолжительность : 1 ч. 46 м.
Вид битрейта : Постоянный
Битрейт : 384 Кбит/сек
Каналы : 6 каналов
Расположение каналов : Front: L C R, Side: L R, LFE
Частота : 48, 0 КГц
Частота кадров : 31, 250 кадров/сек (1536 SPF)
Битовая глубина : 16 бит
Метод сжатия : С потерями
Размер потока : 293 Мбайт (10%)
Заголовок : Английский
Язык : English
ServiceKind/String : Complete Main
Default : Нет
Forced : Нет
Текст #1
Идентификатор : 4
Формат : UTF-8
Идентификатор кодека : S_TEXT/UTF8
Идентификатор кодека/Информация : UTF-8 Plain Text
Продолжительность : 1 ч. 40 м.
Битрейт : 106 бит/сек
ElementCount : 1043
Размер потока : 78, 1 Кбайт (0%)
Заголовок : R5
Язык : Russian
Default : Нет
Forced : Нет
Текст #2
Идентификатор : 5
Формат : UTF-8
Идентификатор кодека : S_TEXT/UTF8
Идентификатор кодека/Информация : UTF-8 Plain Text
Продолжительность : 1 ч. 45 м.
Битрейт : 82 бит/сек
ElementCount : 1769
Размер потока : 63, 2 Кбайт (0%)
Заголовок : SDH
Язык : English
Default : Нет
Forced : Нет

Скриншоты для ознакомления




Все одноименные релизы в Клубе
Время раздачи: с 13: 00 до 01: 00 МСК, выходные круглосуточно (до появления первых 3-5 скачавших)
 
Уважаемый посетитель, Вы зашли на сайт как незарегистрированный пользователь. Мы рекомендуем Вам зарегистрироваться либо зайти на сайт под своим именем.

Другие новости по теме:

  • Alien: Isolation / Чужой: Изоляция [PS3] [EUR] [Multi7] [4.60] [Cobra ODE / E3 ODE PRO ISO] (2014) скачать через торрент бесплатно
  • Родина / Чужой среди своих / Homeland (2014) WEB-DL [H.264 / 720p-LQ] (сезон 4, серии 01-02 из 12) (Пифагор) (обновляемая)
  • Родина / Чужой среди своих / Homeland (2014) WEB-DLRip (сезон 4, серии 1 из 12) LostFilm (Обновляемая)
  • Родина / Чужой среди своих / Homeland (2014) WEB-DL [H.264 / 720p-LQ] (сезон 4, серии 1 из 12) LostFilm (Обновляемая)
  • Alien: Isolation Ripley Edition / Чужой: Изоляция Издание "Рипли" [PS3] [PSN] [EUR] [Ru] [3.55] [Cobra ODE / E3 ODE PRO ISO] [Repack / 1.01] (2014)
  • Чужой (2014) DVB [сезон 1, серия 1-6 из 24] (Обновляемая) скачать через торрент бесплатно
  • Чужой (2014) SATRip [H.264] (сезон 1, серия 1-6 из 24) (Обновляемая) скачать через торрент бесплатно
  • Свой среди чужих, чужой среди своих (1974) DVDRip [H.264] скачать через торрент бесплатно


  • Информация
    Посетители, находящиеся в группе Гости, не могут оставлять комментарии в данной новости.
    Главная страница | Регистрация | Добавить новость | Новое на сайте Copyright © 2019. bolt.mmix.club All Rights Reserved