Подписывайся на наш канал в Telegram https://t.me/torrentok и получи доступ к торрентам без ограничений!
. bolt.mmix.club
Авторские права
con...@...Показать
Вход на сайт
Логин:
Пароль:
 
Навигация по сайту
Популярные статьи

Торрент трекер | Скачать торрент | Скачать через Торрент | Скачать торрент бесплатно | Скачать торрент без регистрации Фильмы торрент скачать Точка возврата / Backtrace (2018) WEBRip [H.264 / 720p-LQ] [PR] торрент скачать бесплатно

Точка возврата / Backtrace (2018) WEBRip [H.264 / 720p-LQ] [PR] торрент скачать бесплатно

Фильмы торрент скачать
Точка возврата / Backtrace (2018) WEBRip [H.264 / 720p-LQ] [PR]Производство: Канада, США/Diamond Films, Dreamscape Productions, Emmett/Furla Films
Жанр: Боевик, драма, криминал
Режиссер: Брайан А. Миллер

Актеры
Сильвестр Сталлоне, Райан Гузман, Кристофер Макдональд, Мэттью Модайн, Медоу Уильямс, Колин Эглсфилд, Лидия Халл, Свен Теммел, Дженна Уиллис, Тайлер Джон Олсон

Описание

Дерзкое ограбление инкассаторской машины стало самым громким преступлением в городе. Главную тайну — где спрятаны украденные деньги — сможет раскрыть единственный выживший после заварухи преступник. Но есть один нюанс: он полностью потерял память. Раскрыть преступление поможет экспериментальное вещество: грабитель, изучая глубины своего разума, и коп, следующий за ним, должны прийти к точке возврата. Точке, где всё началось и должно закончиться.


Возраст: 18+ (зрителям, достигшим 18 лет. запрещено для детей)
Рейтинг MPAA: R (лицам до 17 лет обязательно присутствие взрослого)
Продолжительность: 01: 36: 01
Качество видео: WEBRip
Перевод: Дублированный
Субтитры: Отсутствуют
Видео: AVC/H.264, 1280x692, ~2570 kbps
Аудио: AAC, 6 ch, 512 kbps
General
Unique ID : 247336313998037762107124036139216226849 (0xBA133DC8DF50DE979560AB06B5574A21)
Complete name : E: Backtrace_2018_720p.mkv
Format : Matroska
Format version : Version 4
File size : 2.06 GiB
Duration : 1 h 36 min
Overall bit rate : 3 077 kb/s
Encoded date : UTC 2020-08-29 21: 37: 11
Writing application : mkvmerge v48.0.0 (\'Fortress Around Your Heart\') 64-bit
Writing library : libebml v1.4.0 + libmatroska v1.6.0
Video
ID : 1
Format : AVC
Format/Info : Advanced Video Codec
Format profile : High@L4
Format settings : CABAC/4 Ref Frames
Format settings, CABAC : Yes
Format settings, ReFrames : 4 frames
Codec ID : V_MPEG4/ISO/AVC
Duration : 1 h 36 min
Bit rate : 2 570 kb/s
Width : 1 280 pixels
Height : 692 pixels
Display aspect ratio : 1.85: 1
Frame rate mode : Constant
Frame rate : 24.000 FPS
Color space : YUV
Chroma subsampling : 4: 2: 0
Bit depth : 8 bits
Scan type : Progressive
Bits/(Pixel*Frame) : 0.121
Stream size : 1.72 GiB (83%)
Writing library : x264 core 148
Encoding settings : cabac=1/ref=3/deblock=1: 0: 0/analyse=0x3: 0x113/me=hex/subme=7/psy=1/psy_rd=1.00: 0.00/mixed_ref=1/me_range=16/chroma_me=1/trellis=1/8x8dct=1/cqm=0/deadzone=21, 11/fast_pskip=1/chroma_qp_offset=-2/threads=22/lookahead_threads=3/sliced_threads=0/nr=0/decimate=1/interlaced=0/bluray_compat=0/constrained_intra=0/bframes=6/b_pyramid=2/b_adapt=1/b_bias=0/direct=1/weightb=1/open_gop=0/weightp=2/keyint=48/keyint_min=25/scenecut=0/intra_refresh=0/rc_lookahead=40/rc=2pass/mbtree=1/bitrate=2569/ratetol=1.0/qcomp=0.60/qpmin=0/qpmax=69/qpstep=4/cplxblur=20.0/qblur=0.5/vbv_maxrate=3854/vbv_bufsize=10279/nal_hrd=none/filler=0/ip_ratio=1.40/aq=1: 1.00
Language : English
Default : Yes
Forced : No
Audio
ID : 2
Format : AAC LC
Format/Info : Advanced Audio Codec Low Complexity
Codec ID : A_AAC-2
Duration : 1 h 36 min
Bit rate : 512 kb/s
Channel(s) : 6 channels
Channel layout : C L R Ls Rs LFE
Sampling rate : 48.0 kHz
Frame rate : 46.875 FPS (1024 SPF)
Compression mode : Lossy
Delay relative to video : -43 ms
Stream size : 352 MiB (17%)
Title : DUB_IVI
Language : Russian
Default : Yes
Forced : No

Скриншоты для ознакомления



Все одноименные релизы в Клубе
Время раздачи: 24/7 (до появления первых 3-5 скачавших)
 
Уважаемый посетитель, Вы зашли на сайт как незарегистрированный пользователь. Мы рекомендуем Вам зарегистрироваться либо зайти на сайт под своим именем.

Другие новости по теме:

  • Андрей Таманцев | Точка возврата (2016) [MP3]
  • Сергей Чичин | Точка возврата (2018) [FB2]
  • Точка возврата / Backtrace (2018) WEB-DL [H.264 / 1080p-LQ] [MVO]
  • Точка возврата / Backtrace (2018) BDRemux [H.264 / 1080p]
  • Точка возврата / Backtrace (2018) HDRip
  • Точка возврата (2007) DVDRip


  • Информация
    Посетители, находящиеся в группе Гости, не могут оставлять комментарии в данной новости.
    Главная страница | Регистрация | Добавить новость | Новое на сайте Copyright © 2019. bolt.mmix.club All Rights Reserved