Подписывайся на наш канал в Telegram https://t.me/torrentok и получи доступ к торрентам без ограничений!
. bolt.mmix.club
Авторские права
con...@...Показать
Вход на сайт
Логин:
Пароль:
 
Навигация по сайту
Популярные статьи

Торрент трекер | Скачать торрент | Скачать через Торрент | Скачать торрент бесплатно | Скачать торрент без регистрации Фильмы торрент скачать Отступники / The Departed (2006) BDRip [H.265 / 1080p] [10-bit] [FRA Transfer] торрент скачать бесплатно

Отступники / The Departed (2006) BDRip [H.265 / 1080p] [10-bit] [FRA Transfer] торрент скачать бесплатно

Фильмы торрент скачать
Отступники / The Departed (2006) BDRip [H.265 / 1080p] [10-bit] [FRA Transfer]Производство: США/Warner Bros. Pictures Co., Initial Entertainment Group (IEG), Media Asia Films Ltd., Plan B Entertainment, Vertigo Entertainment
Жанр: Триллер, драма, криминал
Режиссер: Мартин Скорсезе

Актеры
Леонардо ДиКаприо, Мэтт Дэймон, Джек Николсон, Марк Уолберг, Мартин Шин, Рэй Уинстон, Вера Фармига, Энтони Андерсон, Алек Болдуин, Кевин Корригэн

Описание

Два лучших выпускника полицейской академии оказались по разные стороны баррикады: один из них – агент мафии в рядах правоохранительных органов, другой – крот, внедрённый в мафию. Каждый считает своим долгом обнаружить и уничтожить противника, но постоянная жизнь в искажённых реалиях меняет внутренний мир героев.


Возраст: 16+ (зрителям, достигшим 16 лет)
Рейтинг MPAA: R (лицам до 17 лет обязательно присутствие взрослого)
Релиз от: KORSAR
Продолжительность: 02: 31: 25
Качество видео: BDRip
Перевод: Дублированный, профессиональный двухголосый, авторский
Субтитры: Русские, украинские, английские
Видео: HEVC/H.265, 1920x798, ~12.5 Mbps
Аудио 1: AC3, 6 ch, 448 Kbps - Русский (DUB, Мосфильм-Мастер)
Аудио 2: AC3, 6 ch, 640 Kbps - Русский (DVO, Гланц и Королева)
Аудио 3: AC3, 2 ch, 224 Kbps - Русский (DVO, РЕН-ТВ)
Аудио 4: AC3, 6 ch, 640 Kbps - Русский (AVO, А. Гаврилов)
Аудио 5: AC3, 6 ch, 640 Kbps - Русский (AVO, Д. Есарев)
Аудио 6: AC3, 6 ch, 448 Kbps - Русский (AVO, Ю. Немахов)
Аудио 7: AC3, 6 ch, 640 Kbps - Русский (AVO, В. Замез)
Аудио 8: AC3, 2 ch, 384 Kbps - Украинский (MVO, 1+1)
Аудио 9: AC3, 6 ch, 448 Kbps - Английский (Оригинал)x265 info: frame I: 2347, Avg QP: 18.01 kb/s: 39732.04
x265 info: frame P: 35404, Avg QP: 19.06 kb/s: 27009.29
x265 info: frame B: 180093, Avg QP: 21.50 kb/s: 9337.51
=============================================================
General
Unique ID : 211271658086194433949535124626141250832 (0x9EF170F72070226C2AE2B714A80A8510)
Complete name : Отступники_The_Departed_FR Transfer_(2006)_BDRip-HEVC_1080p_KORSAR.mkv
Format : Matroska
Format version : Version 4/Version 2
File size : 18.0 GiB
Duration : 2 h 31 min
Overall bit rate : 17.1 Mb/s
Movie name : The Departed FR Transfer (2006)_rip_by_Cthulhu_KORSAR
Encoded date : UTC 2020-08-28 18: 47: 27
Writing application : mkvmerge v46.0.0 (\'No Deeper Escape\') 64-bit
Writing library : libebml v1.3.10 + libmatroska v1.5.2
Cover : Yes
Attachments : cover1.jpg
Video
ID : 1
Format : HEVC
Format/Info : High Efficiency Video Coding
Format profile : Main10@L4.1@High
Codec ID : V_MPEGH/ISO/HEVC
Duration : 2 h 31 min
Bit rate : 12.5 Mb/s
Width : 1 920 pixels
Height : 798 pixels
Display aspect ratio : 2.40: 1
Frame rate mode : Constant
Frame rate : 23.976 (24000/1001) FPS
Color space : YUV
Chroma subsampling : 4: 2: 0
Bit depth : 10 bits
Bits/(Pixel*Frame) : 0.341
Stream size : 13.3 GiB (74%)
Writing library : x265 3.3+2-gbe2d82093: WindowsGCC 10.0.164 bit 10bit
Encoding settings : cpuid=1111039/frame-threads=4/numa-pools=16/wpp/no-pmode/no-pme/no-psnr/no-ssim/log-level=2/input-csp=1/input-res=1920x798/interlace=0/total-frames=217844/level-idc=41/high-tier=1/uhd-bd=0/ref=5/no-allow-non-conformance/no-repeat-t_heads/annexb/no-aud/no-hrd/info/hash=0/no-temporal-layers/open-gop/min-keyint=23/keyint=240/gop-lookahead=0/bframes=12/b-adapt=2/b-pyramid/bframe-bias=0/rc-lookahead=60/lookahead-slices=1/scenecut=40/hist-scenecut=0/radl=0/no-splice/no-intra-refresh/ctu=32/min-cu-size=8/rect/amp/max-tu-size=32/tu-inter-depth=4/tu-intra-depth=4/limit-tu=1/rdoq-level=2/dynamic-rd=0.00/no-ssim-rd/signhide/no-tskip/nr-intra=0/nr-inter=0/no-constrained-intra/no-strong-intra-smoothing/max-merge=5/limit-refs=3/limit-modes/me=3/subme=7/merange=57/temporal-mvp/no-frame-dup/hme/Level/merange/L0, L1, L2=16, 32, 57/weightp/weightb/no-analyze-src-pics/deblock=-2: -2/no-sao/no-sao-non-deblock/rd=6/selective-sao=0/no-early-skip/rskip/rskip-edge-threshold=0.050000/no-fast-intra/no-tskip-fast/no-cu-lossless/b-intra/no-splitrd-skip/rdpenalty=0/psy-rd=1.80/psy-rdoq=1.00/no-rd-refine/no-lossless/cbqpoffs=0/crqpoffs=0/rc=crf/crf=20.0/qcomp=0.70/qpstep=4/stats-write=0/stats-read=0/vbv-maxrate=50000/vbv-bufsize=50000/vbv-init=0.9/crf-max=0.0/crf-min=0.0/ipratio=1.40/pbratio=1.30/aq-mode=1/aq-strength=1.00/no-cutree/zone-count=0/no-strict-cbr/qg-size=32/no-rc-grain/qpmax=69/qpmin=0/no-const-vbv/sar=1/overscan=0/videoformat=5/range=0/colorprim=1/transfer=1/colormatrix=1/chromaloc=0/display-window=0/cll=0, 0/min-luma=0/max-luma=1023/log2-max-poc-lsb=8/vui-timing-info/vui-hrd-info/slices=1/no-opt-qp-pps/no-opt-ref-list-length-pps/no-multi-pass-opt-rps/scenecut-bias=0.05/hist-threshold=0.01/no-opt-cu-delta-qp/no-aq-motion/no-hdr10/no-hdr10-opt/no-dhdr10-opt/no-idr-recovery-sei/analysis-reuse-level=0/analysis-save-reuse-level=0/analysis-load-reuse-level=0/scale-factor=0/refine-intra=0/refine-inter=0/refine-mv=1/refine-ctu-distortion=0/no-limit-sao/ctu-info=0/no-lowpass-dct/refine-analysis-type=0/copy-pic=1/max-ausize-factor=1.0/no-dynamic-refine/no-single-sei/no-hevc-aq/no-svt/no-field/qp-adaptation-range=1.00/no-scenecut-aware-qpconformance-window-offsets/right=0/bottom=0
Language : English
Default : Yes
Forced : No
Color range : Limited
Color primaries : BT.709
Transfer characteristics : BT.709
Matrix coefficients : BT.709
Audio #1
ID : 2
Format : AC-3
Format/Info : Audio Coding 3
Commercial name : Dolby Digital
Codec ID : A_AC3
Duration : 2 h 31 min
Bit rate mode : Constant
Bit rate : 448 kb/s
Channel(s) : 6 channels
Channel layout : L R C LFE Ls Rs
Sampling rate : 48.0 kHz
Frame rate : 31.250 FPS (1536 SPF)
Bit depth : 16 bits
Compression mode : Lossy
Stream size : 485 MiB (3%)
Title : Дубляж
Language : Russian
Service kind : Complete Main
Default : Yes
Forced : No
Audio #2
ID : 3
Format : AC-3
Format/Info : Audio Coding 3
Commercial name : Dolby Digital
Codec ID : A_AC3
Duration : 2 h 31 min
Bit rate mode : Constant
Bit rate : 640 kb/s
Channel(s) : 6 channels
Channel layout : L R C LFE Ls Rs
Sampling rate : 48.0 kHz
Frame rate : 31.250 FPS (1536 SPF)
Bit depth : 16 bits
Compression mode : Lossy
Stream size : 693 MiB (4%)
Title : DVO Гланц и Королева
Language : Russian
Service kind : Complete Main
Default : No
Forced : No
Audio #3
ID : 4
Format : AC-3
Format/Info : Audio Coding 3
Commercial name : Dolby Digital
Codec ID : A_AC3
Duration : 2 h 31 min
Bit rate mode : Constant
Bit rate : 224 kb/s
Channel(s) : 2 channels
Channel layout : L R
Sampling rate : 48.0 kHz
Frame rate : 31.250 FPS (1536 SPF)
Bit depth : 16 bits
Compression mode : Lossy
Stream size : 243 MiB (1%)
Title : DVO РЕН-ТВ
Language : Russian
Service kind : Complete Main
Default : No
Forced : No
Audio #4
ID : 5
Format : AC-3
Format/Info : Audio Coding 3
Commercial name : Dolby Digital
Codec ID : A_AC3
Duration : 2 h 31 min
Bit rate mode : Constant
Bit rate : 640 kb/s
Channel(s) : 6 channels
Channel layout : L R C LFE Ls Rs
Sampling rate : 48.0 kHz
Frame rate : 31.250 FPS (1536 SPF)
Bit depth : 16 bits
Compression mode : Lossy
Stream size : 693 MiB (4%)
Title : AVO Гаврилов
Language : Russian
Service kind : Complete Main
Default : No
Forced : No
Audio #5
ID : 6
Format : AC-3
Format/Info : Audio Coding 3
Commercial name : Dolby Digital
Codec ID : A_AC3
Duration : 2 h 31 min
Bit rate mode : Constant
Bit rate : 640 kb/s
Channel(s) : 6 channels
Channel layout : L R C LFE Ls Rs
Sampling rate : 48.0 kHz
Frame rate : 31.250 FPS (1536 SPF)
Bit depth : 16 bits
Compression mode : Lossy
Stream size : 693 MiB (4%)
Title : AVO Есарев
Language : Russian
Service kind : Complete Main
Default : No
Forced : No
Audio #6
ID : 7
Format : AC-3
Format/Info : Audio Coding 3
Commercial name : Dolby Digital
Codec ID : A_AC3
Duration : 2 h 31 min
Bit rate mode : Constant
Bit rate : 448 kb/s
Channel(s) : 6 channels
Channel layout : L R C LFE Ls Rs
Sampling rate : 48.0 kHz
Frame rate : 31.250 FPS (1536 SPF)
Bit depth : 16 bits
Compression mode : Lossy
Stream size : 485 MiB (3%)
Title : AVO Немахов
Language : Russian
Service kind : Complete Main
Default : No
Forced : No
Audio #7
ID : 8
Format : AC-3
Format/Info : Audio Coding 3
Commercial name : Dolby Digital
Codec ID : A_AC3
Duration : 2 h 31 min
Bit rate mode : Constant
Bit rate : 640 kb/s
Channel(s) : 6 channels
Channel layout : L R C LFE Ls Rs
Sampling rate : 48.0 kHz
Frame rate : 31.250 FPS (1536 SPF)
Bit depth : 16 bits
Compression mode : Lossy
Stream size : 693 MiB (4%)
Title : AVO Zamez
Language : Russian
Service kind : Complete Main
Default : No
Forced : No
Audio #8
ID : 9
Format : AC-3
Format/Info : Audio Coding 3
Commercial name : Dolby Digital
Codec ID : A_AC3
Duration : 2 h 31 min
Bit rate mode : Constant
Bit rate : 384 kb/s
Channel(s) : 2 channels
Channel layout : L R
Sampling rate : 48.0 kHz
Frame rate : 31.250 FPS (1536 SPF)
Bit depth : 16 bits
Compression mode : Lossy
Stream size : 416 MiB (2%)
Title : 1+1
Language : Ukrainian
Service kind : Complete Main
Default : No
Forced : No
Audio #9
ID : 10
Format : AC-3
Format/Info : Audio Coding 3
Commercial name : Dolby Digital
Codec ID : A_AC3
Duration : 2 h 31 min
Bit rate mode : Constant
Bit rate : 448 kb/s
Channel(s) : 6 channels
Channel layout : L R C LFE Ls Rs
Sampling rate : 48.0 kHz
Frame rate : 31.250 FPS (1536 SPF)
Bit depth : 16 bits
Compression mode : Lossy
Stream size : 485 MiB (3%)
Language : English
Service kind : Complete Main
Default : No
Forced : No
Text #1
ID : 11
Format : UTF-8
Codec ID : S_TEXT/UTF8
Codec ID/Info : UTF-8 Plain Text
Duration : 17 s 980 ms
Bit rate : 173 b/s
Count of elements : 5
Stream size : 391 Bytes (0%)
Title : Forced
Language : Russian
Default : No
Forced : No
Text #2
ID : 12
Format : UTF-8
Codec ID : S_TEXT/UTF8
Codec ID/Info : UTF-8 Plain Text
Duration : 2 h 25 min
Bit rate : 124 b/s
Count of elements : 2101
Stream size : 132 KiB (0%)
Title : R5
Language : Russian
Default : No
Forced : No
Text #3
ID : 13
Format : UTF-8
Codec ID : S_TEXT/UTF8
Codec ID/Info : UTF-8 Plain Text
Duration : 2 h 23 min
Bit rate : 124 b/s
Count of elements : 1947
Stream size : 131 KiB (0%)
Title : ren_313
Language : Russian
Default : No
Forced : No
Text #4
ID : 14
Format : UTF-8
Codec ID : S_TEXT/UTF8
Codec ID/Info : UTF-8 Plain Text
Duration : 2 h 23 min
Bit rate : 124 b/s
Count of elements : 2091
Stream size : 131 KiB (0%)
Language : Ukrainian
Default : No
Forced : No
Text #5
ID : 15
Format : UTF-8
Codec ID : S_TEXT/UTF8
Codec ID/Info : UTF-8 Plain Text
Duration : 2 h 23 min
Bit rate : 70 b/s
Count of elements : 1905
Stream size : 74.4 KiB (0%)
Language : English
Default : No
Forced : No
Menu
00: 00: 00.000 : : 00: 00: 00.000
00: 08: 21.626 : : 00: 08: 21.626
00: 17: 36.347 : : 00: 17: 36.347
00: 27: 03.330 : : 00: 27: 03.330
00: 32: 20.981 : : 00: 32: 20.981
00: 42: 08.568 : : 00: 42: 08.568
00: 51: 27.584 : : 00: 51: 27.584
00: 59: 47.918 : : 00: 59: 47.918
01: 09: 55.691 : : 01: 09: 55.691
01: 19: 32.393 : : 01: 19: 32.393
01: 30: 23.126 : : 01: 30: 23.126
01: 41: 43.222 : : 01: 41: 43.222
01: 49: 01.785 : : 01: 49: 01.785
01: 57: 32.629 : : 01: 57: 32.629
02: 06: 07.435 : : 02: 06: 07.435
02: 16: 25.094 : : 02: 16: 25.094
02: 24: 50.765 : : 02: 24: 50.765
02: 31: 25.660 : : 02: 31: 25.660

Скриншоты для ознакомления



Все одноименные релизы в Клубе
Время раздачи: 24/7 (мультитрекерная раздача)
 
Уважаемый посетитель, Вы зашли на сайт как незарегистрированный пользователь. Мы рекомендуем Вам зарегистрироваться либо зайти на сайт под своим именем.

Другие новости по теме:

  • Отступники / The Departed (2006) BDRip [1080p] ATV скачать через торрент бесплатно
  • Отступники / The Departed (2006) BDRip [576p] iPad скачать через торрент бесплатно
  • Отступники / The Departed (2006) BDRip [H.264 / 720p] скачать через торрент бесплатно
  • Отступники / The Departed (2006) BDRip [H.264 / 1080p] скачать через торрент бесплатно
  • Отступники / The Departed (2006) BDRip [H.265 / 1080p-LQ]
  • Отступники / The Departed (2006) BDRip [H.265 / 1080p] [10-bit] [FRA Transfer]
  • Отступники / The Departed (2006) HybridRip [H.264 / 1080p-LQ] [Open Matte]
  • Отступники / The Departed (2006) HybridRip [H.264] [Open Matte]


  • Информация
    Посетители, находящиеся в группе Гости, не могут оставлять комментарии в данной новости.
    Главная страница | Регистрация | Добавить новость | Новое на сайте Copyright © 2019. bolt.mmix.club All Rights Reserved