Подписывайся на наш канал в Telegram https://t.me/torrentok и получи доступ к торрентам без ограничений!
. bolt.mmix.club
Авторские права
con...@...Показать
Вход на сайт
Логин:
Пароль:
 
Навигация по сайту
Популярные статьи

Торрент трекер | Скачать торрент | Скачать через Торрент | Скачать торрент бесплатно | Скачать торрент без регистрации Фильмы торрент скачать Бегущий по лезвию 2049 / Blade Runner 2049 (2017) UHD BDRip [H.265 / 2160p] [4K, HDR, 10-bit] торрент скачать бесплатно

Бегущий по лезвию 2049 / Blade Runner 2049 (2017) UHD BDRip [H.265 / 2160p] [4K, HDR, 10-bit] торрент скачать бесплатно

Фильмы торрент скачать
Бегущий по лезвию 2049 / Blade Runner 2049 (2017) UHD BDRip [H.265 / 2160p] [4K, HDR, 10-bit]Производство: США, Великобритания, Венгрия, Канада/16: 14 Entertainment, Alcon Entertainment, Columbia Pictures
Жанр: Фантастика, триллер, драма, детектив
Режиссер: Дени Вильнёв

Актеры
Райан Гослинг, Харрисон Форд, Джаред Лето, Ана де Армас, Сильвия Хукс, Робин Райт, Маккензи Дэвис, Карла Юри, Ленни Джеймс, Дэйв Батиста

Описание

В недалеком будущем мир населен людьми и репликантами, созданными выполнять самую тяжелую работу. Работа офицера полиции Кей — держать репликантов под контролем в условиях нарастающего напряжения… Пока он случайно не становится обладателем секретной информации, которая ставит под угрозу существование всего человечества. Желая найти ключ к разгадке, Кей решает разыскать Рика Декарда, бывшего офицера специального подразделения полиции Лос-Анджелеса, который бесследно исчез много лет назад.


Возраст: 18+ (зрителям, достигшим 18 лет. запрещено для детей)
Рейтинг MPAA: R (лицам до 17 лет обязательно присутствие взрослого)

Релиз от: VoX
Продолжительность: 02: 43: 28
Качество видео: UHD BDRip 2160p
Перевод: Дублированный (Blu-Ray), Авторский (А. Гаврилов, Л. Володарский, Ю. Живов, Ю. Сербин, Д. Есарев), Одноголосый (Solod)
Субтитры: Русские (forced, Blu-Ray, FOCS), Английские
Видео: HEVC/H.265, 27.2 Mbps, 3840x1600, 10 bits, HDR10, BT.2020
Аудио 1 : AC3, 5.1, 640 kbps - Dub, UHD Blu-Ray
Аудио 2 : E-AC3, 7.1, 1536 kbps - AVO, А. Гаврилов
Аудио 3 : E-AC3, 7.1, 1536 kbps - AVO, Л. Володарский
Аудио 4 : E-AC3, 7.1, 1536 kbps - AVO, Ю. Живов
Аудио 5 : E-AC3, 7.1, 1536 kbps - AVO, Ю. Сербин
Аудио 6 : E-AC3, 7.1, 1536 kbps - AVO, Д. Есарев
Аудио 7 : AC3, 5.1, 448 kbps - VO, Solod
Аудио 8 : E-AC3, 7.1, 1536 kbps - английский
General
Unique ID : 233103176660286854947552353500237040798 (0xAF5E09EF33B8B45E594E6D5FDABE8C9E)
Complete name : C: UsersVortexDesktopBlade.Runner.2049.2017.2160p.UHD.BDRip.HDR.x265.DD+7.1-VoX.mkv
Format : Matroska
Format version : Version 4
File size : 42.8 GiB
Duration : 2 h 43 min
Overall bit rate : 37.5 Mb/s
Encoded date : UTC 2020-08-29 10: 20: 11
Writing application : mkvmerge v44.0.0 (\'Domino\') 64-bit
Writing library : libebml v1.3.10 + libmatroska v1.5.2
Cover : Yes
Attachments : Cover.jpg
Video
ID : 1
Format : HEVC
Format/Info : High Efficiency Video Coding
Format profile : Main10@L5.1@High
HDR format : SMPTE ST 2086, HDR10 compatible
Codec ID : V_MPEGH/ISO/HEVC
Duration : 2 h 43 min
Bit rate : 27.2 Mb/s
Width : 3 840 pixels
Height : 1 600 pixels
Display aspect ratio : 2.40: 1
Frame rate mode : Constant
Frame rate : 23.976 (24000/1001) FPS
Color space : YUV
Chroma subsampling : 4: 2: 0 (Type 2)
Bit depth : 10 bits
Bits/(Pixel*Frame) : 0.184
Stream size : 31.0 GiB (72%)
Writing library : x265 3.4+6-g73f96ff39: WindowsGCC 11.0.064 bit 10bit
Encoding settings : cpuid=1111039/frame-threads=2/numa-pools=4/wpp/no-pmode/no-pme/no-psnr/no-ssim/log-level=2/input-csp=1/input-res=3840x1600/interlace=0/total-frames=235152/level-idc=51/high-tier=1/uhd-bd=0/ref=4/no-allow-non-conformance/repeat-t_heads/annexb/aud/hrd/info/hash=0/no-temporal-layers/no-open-gop/min-keyint=23/keyint=240/gop-lookahead=0/bframes=8/b-adapt=2/b-pyramid/bframe-bias=0/rc-lookahead=40/lookahead-slices=4/scenecut=40/hist-scenecut=0/radl=0/no-splice/no-intra-refresh/ctu=64/min-cu-size=8/no-rect/no-amp/max-tu-size=32/tu-inter-depth=4/tu-intra-depth=4/limit-tu=4/rdoq-level=2/dynamic-rd=0.00/no-ssim-rd/signhide/no-tskip/nr-intra=0/nr-inter=0/no-constrained-intra/strong-intra-smoothing/max-merge=4/limit-refs=1/limit-modes/me=3/subme=5/merange=57/temporal-mvp/no-frame-dup/no-hme/weightp/weightb/no-analyze-src-pics/deblock=-3: -3/no-sao/no-sao-non-deblock/rd=4/selective-sao=0/no-early-skip/rskip/no-fast-intra/no-tskip-fast/no-cu-lossless/b-intra/no-splitrd-skip/rdpenalty=0/psy-rd=2.00/psy-rdoq=2.00/no-rd-refine/no-lossless/cbqpoffs=-2/crqpoffs=-2/rc=crf/crf=17.0/qcomp=0.60/qpstep=4/stats-write=0/stats-read=0/vbv-maxrate=160000/vbv-bufsize=160000/vbv-init=0.9/crf-max=0.0/crf-min=0.0/ipratio=1.30/pbratio=1.20/aq-mode=3/aq-strength=0.90/no-cutree/zone-count=0/no-strict-cbr/qg-size=32/no-rc-grain/qpmax=69/qpmin=0/no-const-vbv/sar=0/overscan=0/videoformat=5/range=0/colorprim=9/transfer=16/colormatrix=9/chromaloc=1/chromaloc-top=2/chromaloc-bottom=2/display-window=0/master-display=G(13250, 34500)B(7500, 3000)R(34000, 16000)WP(15635, 16450)L(40000000, 50)/cll=457, 179/min-luma=0/max-luma=1023/log2-max-poc-lsb=8/vui-timing-info/vui-hrd-info/slices=1/no-opt-qp-pps/no-opt-ref-list-length-pps/no-multi-pass-opt-rps/scenecut-bias=0.00/hist-threshold=0.01/no-opt-cu-delta-qp/no-aq-motion/hdr10/hdr10-opt/no-dhdr10-opt/no-idr-recovery-sei/analysis-reuse-level=0/analysis-save-reuse-level=0/analysis-load-reuse-level=0/scale-factor=0/refine-intra=0/refine-inter=0/refine-mv=0/refine-ctu-distortion=0/no-limit-sao/ctu-info=0/no-lowpass-dct/refine-analysis-type=0/copy-pic=1/max-ausize-factor=1.0/no-dynamic-refine/no-single-sei/no-hevc-aq/no-svt/no-field/qp-adaptation-range=1.00/no-scenecut-aware-qpconformance-window-offsets/right=0/bottom=0/decoder-max-rate=0
Default : Yes
Forced : No
Color range : Limited
Color primaries : BT.2020
Transfer characteristics : PQ
Matrix coefficients : BT.2020 non-constant
Mastering display color pri : Display P3
Mastering display luminance : min: 0.0050 cd/m2, max: 4000 cd/m2
Maximum Content Light Level : 457 cd/m2
Maximum Frame-Average Light : 179 cd/m2
Audio #1
ID : 2
Format : AC-3
Format/Info : Audio Coding 3
Commercial name : Dolby Digital
Codec ID : A_AC3
Duration : 2 h 43 min
Bit rate mode : Constant
Bit rate : 640 kb/s
Channel(s) : 6 channels
Channel layout : L R C LFE Ls Rs
Sampling rate : 48.0 kHz
Frame rate : 31.250 FPS (1536 SPF)
Compression mode : Lossy
Stream size : 748 MiB (2%)
Title : Dub, UHD Blu-Ray
Language : Russian
Service kind : Complete Main
Default : Yes
Forced : No
Audio #2
ID : 3
Format : E-AC-3
Format/Info : Enhanced AC-3
Commercial name : Dolby Digital Plus
Format profile : Blu-ray Disc
Codec ID : A_EAC3
Duration : 2 h 43 min
Bit rate mode : Constant
Bit rate : 1 536 kb/s
Channel(s) : 8 channels
Channel layout : L R C LFE Ls Rs Lb Rb
Sampling rate : 48.0 kHz
Frame rate : 31.250 FPS (1536 SPF)
Compression mode : Lossy
Stream size : 1.75 GiB (4%)
Title : А. Гаврилов
Language : Russian
Service kind : Complete Main
Default : No
Forced : No
Audio #3
ID : 4
Format : E-AC-3
Format/Info : Enhanced AC-3
Commercial name : Dolby Digital Plus
Format profile : Blu-ray Disc
Codec ID : A_EAC3
Duration : 2 h 43 min
Bit rate mode : Constant
Bit rate : 1 536 kb/s
Channel(s) : 8 channels
Channel layout : L R C LFE Ls Rs Lb Rb
Sampling rate : 48.0 kHz
Frame rate : 31.250 FPS (1536 SPF)
Compression mode : Lossy
Stream size : 1.75 GiB (4%)
Title : Л. Володарский
Language : Russian
Service kind : Complete Main
Default : No
Forced : No
Audio #4
ID : 5
Format : E-AC-3
Format/Info : Enhanced AC-3
Commercial name : Dolby Digital Plus
Format profile : Blu-ray Disc
Codec ID : A_EAC3
Duration : 2 h 43 min
Bit rate mode : Constant
Bit rate : 1 536 kb/s
Channel(s) : 8 channels
Channel layout : L R C LFE Ls Rs Lb Rb
Sampling rate : 48.0 kHz
Frame rate : 31.250 FPS (1536 SPF)
Compression mode : Lossy
Stream size : 1.75 GiB (4%)
Title : Ю. Живов
Language : Russian
Service kind : Complete Main
Default : No
Forced : No
Audio #5
ID : 6
Format : E-AC-3
Format/Info : Enhanced AC-3
Commercial name : Dolby Digital Plus
Format profile : Blu-ray Disc
Codec ID : A_EAC3
Duration : 2 h 43 min
Bit rate mode : Constant
Bit rate : 1 536 kb/s
Channel(s) : 8 channels
Channel layout : L R C LFE Ls Rs Lb Rb
Sampling rate : 48.0 kHz
Frame rate : 31.250 FPS (1536 SPF)
Compression mode : Lossy
Stream size : 1.75 GiB (4%)
Title : Ю. Сербин
Language : Russian
Service kind : Complete Main
Default : No
Forced : No
Audio #6
ID : 7
Format : E-AC-3
Format/Info : Enhanced AC-3
Commercial name : Dolby Digital Plus
Format profile : Blu-ray Disc
Codec ID : A_EAC3
Duration : 2 h 43 min
Bit rate mode : Constant
Bit rate : 1 536 kb/s
Channel(s) : 8 channels
Channel layout : L R C LFE Ls Rs Lb Rb
Sampling rate : 48.0 kHz
Frame rate : 31.250 FPS (1536 SPF)
Compression mode : Lossy
Stream size : 1.75 GiB (4%)
Title : Д. Есарев
Language : Russian
Service kind : Complete Main
Default : No
Forced : No
Audio #7
ID : 8
Format : AC-3
Format/Info : Audio Coding 3
Commercial name : Dolby Digital
Codec ID : A_AC3
Duration : 2 h 43 min
Bit rate mode : Constant
Bit rate : 448 kb/s
Channel(s) : 6 channels
Channel layout : L R C LFE Ls Rs
Sampling rate : 48.0 kHz
Frame rate : 31.250 FPS (1536 SPF)
Compression mode : Lossy
Stream size : 524 MiB (1%)
Title : Solod
Language : Russian
Service kind : Complete Main
Default : No
Forced : No
Audio #8
ID : 9
Format : E-AC-3
Format/Info : Enhanced AC-3
Commercial name : Dolby Digital Plus
Format profile : Blu-ray Disc
Codec ID : A_EAC3
Duration : 2 h 43 min
Bit rate mode : Constant
Bit rate : 1 536 kb/s
Channel(s) : 8 channels
Channel layout : L R C LFE Ls Rs Lb Rb
Sampling rate : 48.0 kHz
Frame rate : 31.250 FPS (1536 SPF)
Compression mode : Lossy
Stream size : 1.75 GiB (4%)
Title : Original
Language : English
Service kind : Complete Main
Default : No
Forced : No
Text #1
ID : 10
Format : UTF-8
Codec ID : S_TEXT/UTF8
Codec ID/Info : UTF-8 Plain Text
Duration : 2 h 41 min
Bit rate : 1 b/s
Count of elements : 34
Stream size : 1.65 KiB (0%)
Title : Forced
Language : Russian
Default : Yes
Forced : No
Text #2
ID : 11
Format : UTF-8
Codec ID : S_TEXT/UTF8
Codec ID/Info : UTF-8 Plain Text
Duration : 2 h 41 min
Bit rate : 39 b/s
Count of elements : 1050
Stream size : 46.4 KiB (0%)
Title : Blu-Ray
Language : Russian
Default : No
Forced : No
Text #3
ID : 12
Format : UTF-8
Codec ID : S_TEXT/UTF8
Codec ID/Info : UTF-8 Plain Text
Duration : 2 h 33 min
Bit rate : 45 b/s
Count of elements : 1017
Stream size : 51.0 KiB (0%)
Title : FOCS
Language : Russian
Default : No
Forced : No
Text #4
ID : 13
Format : UTF-8
Codec ID : S_TEXT/UTF8
Codec ID/Info : UTF-8 Plain Text
Duration : 2 h 26 min
Bit rate : 24 b/s
Count of elements : 972
Stream size : 26.7 KiB (0%)
Title : Full
Language : English
Default : No
Forced : No
Menu
00: 00: 00.000 : en: Chapter 01
00: 12: 36.172 : en: Chapter 02
00: 23: 29.116 : en: Chapter 03
00: 37: 00.885 : en: Chapter 04
00: 42: 50.234 : en: Chapter 05
00: 49: 24.503 : en: Chapter 06
00: 58: 35.553 : en: Chapter 07
01: 04: 10.638 : en: Chapter 08
01: 15: 47.251 : en: Chapter 09
01: 25: 12.482 : en: Chapter 10
01: 36: 15.060 : en: Chapter 11
01: 50: 54.773 : en: Chapter 12
02: 01: 36.789 : en: Chapter 13
02: 08: 40.379 : en: Chapter 14
02: 16: 42.319 : en: Chapter 15
02: 27: 46.941 : en: Chapter 16
• Спродюсированный Ридли Скоттом научно-фантастический триллер Бегущий по лезвию 2049 является продолжением фильма 1982 года Бегущий по лезвию. Картина снята канадским режиссёром Дени Вильнёвом и основана на персонажах из романа Филипа К. Дика Мечтают ли андроиды об электроовцах?. В свое время сильно нашумевшая первая часть имела аж 7 вариантов концовок.
• Ридли Скотт как-то обмолвился, что без Харрисона Форда не видит продолжения фильма.
• Это второй фильм, к которому сценарий писал Ридли Скотт. Более того, первый фильм был написан более 50 лет назад и назывался Boy and Bicycle.
• Часть сцен с Джаредом Лето были сняты в Будапеште, Венгрия в сентябре 2016 года. Это заняло около двух недель.
• Это первый научно-фантастический фильм для актера Роджера Диккенса с момента выхода фильма 1984.
• Жан-Марк Валле познакомил Джареда Лето с Дени Вильнёвом. А сами они познакомились на съемках фильма Далласский клуб покупателей, который снимал Жан-Марк Валле.
• В момент, когда К. входит в здание, чтобы найти Декарда, можно увидеть надпись Haeng Un, что на корейском означает Удачи. Вообще в фильме много отсылок к корейскому началу.
• Сильвия Хукс - второй датский актер, снимавшийся в фильмах о блейд-раннерах, первым был Рутгер Хауэр, сыгравший Роя Батти в оригинальной части 1982-ого года.
Эмили Блант рассматривалась на роль, но была вынуждена отказаться в связи с беременностью.
• В фильме снимается один оскароносный актер - Джерад Лето и 3 номинанта: Райан Гослинг, Харрисон Форд, и Баркхад Абди.
• На момент выхода оригинального фильма актёры Баркхад Абди, Ана де Армас, Маккензи Дэвис, Сильвия Хукс, Карла Джури и Давид Дастмалчян еще не появились на свет.
• Это первая совместная работа между компаниями Warner Bros. и Columbia Pictures с момента выхода фильма Любовь по правилам… и без.
• До того, как Джаред Лето был приглашен на роль Джокера в Отряд самоубийц, его роль была предложена Райану Гослингу, но он отказался.----------MEDiA iNFO------------
SOURCE TYPE.....: 2160p.UHD.Blu-ray.HEVC.Atmos.TrueHD7.1
ViDEO BiTRATE...: x265 Main 10 L5.1 High @ 27, 2 Mbps
FRAME RATE......: 23.976 fps
RESOLUTiON......: 3840 x 1600
AUDiO...........: Russian, English
SUBTiTLE........: Russian, English
RUNTIME.........: 2h: 43m: 28s
ENCODER ........: VoX
----------x265 iNFO------------
x265 info: frame I: 982, Avg QP: 12.09 kb/s: 50313.64
x265 info: frame P: 38263, Avg QP: 13.23 kb/s: 36648.93
x265 info: frame B: 195907, Avg QP: 14.81 kb/s: 25193.17
x265 info: Weighted P-Frames: Y: 8.9% UV: 6.3%
x265 info: Weighted B-Frames: Y: 7.9% UV: 4.9%
x265 info: consecutive B-frames: 6.0% 4.2% 4.2% 12.9% 5.3% 30.4% 6.7% 8.7% 21.8%
Скриншоты для ознакомления



Все одноименные релизы в Клубе
Время раздачи: 24/7 (до появления первых 3-5 скачавших)
 
Уважаемый посетитель, Вы зашли на сайт как незарегистрированный пользователь. Мы рекомендуем Вам зарегистрироваться либо зайти на сайт под своим именем.

Другие новости по теме:

  • Бегущий по лезвию / Blade Runner (1982) HDRip [Final Cut] скачать через торрент бесплатно
  • Бегущий по лезвию / Blade Runner (1982) BDRip [H.264 / 1080p] [The Final Cut]
  • Бегущий по лезвию / Blade Runner (1982) [Final Cut] AC3 5.1 [Solod]
  • Бегущий по лезвию бритвы / Blade Runner (1982) BDRip [H.265 / 720р-LQ] [Final Cut]
  • Бегущий по лезвию 2049 / Blade Runner 2049 (2017) WEBRip [H.264 / 1080p] [Трейлер#2] [EN]
  • Blade Runner: Black Out 2022 | Бегущий по лезвию: отключение света 2022 [2017, Special, 1 эп.] WEB-DL 1080p raw
  • Hans Zimmer & Benjamin Wallfisch - Blade Runner 2049 / Бегущий по лезвию 2049 (Original Motion Picture Soundtrack) (2017) [MP3|320 кб / с]<Soundtrack>
  • Hans Zimmer & Benjamin Wallfisch - Blade Runner 2049 / Бегущий по лезвию 2049 (Original Motion Picture Soundtrack) (2017) [FLAC|Lossless|WEB-DL|tracks]<Soundtrack>


  • Информация
    Посетители, находящиеся в группе Гости, не могут оставлять комментарии в данной новости.
    Главная страница | Регистрация | Добавить новость | Новое на сайте Copyright © 2019. bolt.mmix.club All Rights Reserved