Подписывайся на наш канал в Telegram https://t.me/torrentok и получи доступ к торрентам без ограничений!
. bolt.mmix.club
Авторские права
con...@...Показать
Вход на сайт
Логин:
Пароль:
 
Навигация по сайту
Популярные статьи

Торрент трекер | Скачать торрент | Скачать через Торрент | Скачать торрент бесплатно | Скачать торрент без регистрации Фильмы торрент скачать В ожидании варваров / Waiting for the Barbarians (2019) BDRip [H.264 / 1080p] торрент скачать бесплатно

В ожидании варваров / Waiting for the Barbarians (2019) BDRip [H.264 / 1080p] торрент скачать бесплатно

Фильмы торрент скачать
В ожидании варваров / Waiting for the Barbarians (2019) BDRip [H.264 / 1080p]Производство: Италия, Италия, США, Iervolino Entertainment, Ithaca Pictures
Жанр: Драма
Режиссер: Сиро Герра
Продюсер: Моника Бакарди, Майкл Фицджералд, Андреа Иерволино

Актеры
Марк Райлэнс, Джонни Депп, Роберт Паттинсон, Гана Баярсайкан, Грета Скакки, Давид Денсик, Сэм Рид, Гарри Меллинг, Билл Милнер, Далхсурен Гурсэд

Описание
Спокойная жизнь магистрата маленького городка на границе империи прерывается приездом полковника Джолла, который должен проверить слухи о том, что коренные народы, которых колонизаторы называют варварами, готовят нападение на город. Сначала Джолл пытает двух пленников, посаженных по обвинению в краже овец, а затем организует экспедицию на земли варваров. В результате похода тюрьма городка переполняется пленёнными, и полковник со своими подручными устраивает массовые допросы. Магистрату всё это очень не нравится.


Возраст: 18+ (зрителям, достигшим 18 лет. запрещено для детей)
Дата мировой премьеры: 6 сентября 2019
Дата российской премьеры: 6 августа 2020, Парадиз
Релиз от: NNMClub
Продолжительность: 01: 53: 39
Качество видео: BDRip 1080p
Перевод: Дублированный(iTunes)
Субтитры: Русские (Forced, Full), Английские (Full)
Видео: AVC/H.264, 1920x804, 11.5 Mbps, 23.976 fps
Аудио 1 : AC-3, 6 ch, 384 Kbps | Русский
Аудио 2 : DTS, 6 ch, 1509 Kbps | Английский
General
Unique ID : 289245162885581821159199222852112814660 (0xD99A9790653FD63208AB3703BE8F1244)
Complete name : /Users/imac/HandBrake/Waiting.for.the.Barbarians.BDRip.1080p.pk.mkv
Format : Matroska
Format version : Version 4
File size : 10.6 GiB
Duration : 1 h 53 min
Overall bit rate : 13.4 Mb/s
Movie name : Waiting for the Barbarians BDRip 1080p pk
Encoded date : UTC 2020-08-30 21: 28: 51
Writing application : mkvmerge v49.0.0 (\'Sick Of Losing Soulmates\') 64-bit
Writing library : libebml v1.4.0 + libmatroska v1.6.1
Video
ID : 1
Format : AVC
Format/Info : Advanced Video Codec
Format profile : High@L4.1
Format settings : CABAC/5 Ref Frames
Format settings, CABAC : Yes
Format settings, Reference frames : 5 frames
Codec ID : V_MPEG4/ISO/AVC
Duration : 1 h 53 min
Bit rate : 11.5 Mb/s
Width : 1 920 pixels
Height : 804 pixels
Display aspect ratio : 2.40: 1
Frame rate mode : Constant
Frame rate : 23.976 (24000/1001) FPS
Color space : YUV
Chroma subsampling : 4: 2: 0
Bit depth : 8 bits
Scan type : Progressive
Bits/(Pixel*Frame) : 0.311
Stream size : 9.12 GiB (86%)
Writing library : x264 core 157 r2935 545de2f
Encoding settings : cabac=1/ref=5/deblock=1: -3: -2/analyse=0x3: 0x133/me=umh/subme=9/psy=1/psy_rd=1.00: 0.00/mixed_ref=1/me_range=32/chroma_me=1/trellis=2/8x8dct=1/cqm=0/deadzone=6, 6/fast_pskip=1/chroma_qp_offset=-2/threads=25/lookahead_threads=6/sliced_threads=0/nr=0/decimate=0/interlaced=0/bluray_compat=0/constrained_intra=0/bframes=16/b_pyramid=2/b_adapt=2/b_bias=0/direct=3/weightb=1/open_gop=0/weightp=2/keyint=240/keyint_min=24/scenecut=40/intra_refresh=0/rc_lookahead=40/rc=2pass/mbtree=1/bitrate=11500/ratetol=1.0/qcomp=0.80/qpmin=0/qpmax=69/qpstep=4/cplxblur=20.0/qblur=0.5/vbv_maxrate=62500/vbv_bufsize=78125/nal_hrd=none/filler=0/ip_ratio=1.10/aq=1: 0.50
Language : English
Default : Yes
Forced : No
Color range : Limited
Color primaries : BT.709
Transfer characteristics : BT.709
Matrix coefficients : BT.709
Audio #1
ID : 2
Format : AC-3
Format/Info : Audio Coding 3
Commercial name : Dolby Digital
Codec ID : A_AC3
Duration : 1 h 53 min
Bit rate mode : Constant
Bit rate : 384 kb/s
Channel(s) : 6 channels
Channel layout : L R C LFE Ls Rs
Sampling rate : 48.0 kHz
Frame rate : 31.250 FPS (1536 SPF)
Compression mode : Lossy
Stream size : 312 MiB (3%)
Title : Russian Dub iTunes
Language : Russian
Service kind : Complete Main
Default : Yes
Forced : No
Audio #2
ID : 3
Format : DTS
Format/Info : Digital Theater Systems
Codec ID : A_DTS
Duration : 1 h 53 min
Bit rate mode : Constant
Bit rate : 1 509 kb/s
Channel(s) : 6 channels
Channel layout : C L R Ls Rs LFE
Sampling rate : 48.0 kHz
Frame rate : 93.750 FPS (512 SPF)
Bit depth : 24 bits
Compression mode : Lossy
Stream size : 1.20 GiB (11%)
Title : English Original
Language : English
Default : No
Forced : No
Text #1
ID : 4
Format : UTF-8
Codec ID : S_TEXT/UTF8
Codec ID/Info : UTF-8 Plain Text
Duration : 1 h 32 min
Bit rate : 0 b/s
Count of elements : 4
Stream size : 111 Bytes (0%)
Title : Russian forced
Language : Russian
Default : Yes
Forced : No
Text #2
ID : 5
Format : UTF-8
Codec ID : S_TEXT/UTF8
Codec ID/Info : UTF-8 Plain Text
Duration : 1 h 48 min
Bit rate : 47 b/s
Count of elements : 856
Stream size : 37.8 KiB (0%)
Title : Russian full
Language : Russian
Default : No
Forced : No
Text #3
ID : 6
Format : UTF-8
Codec ID : S_TEXT/UTF8
Codec ID/Info : UTF-8 Plain Text
Duration : 1 h 52 min
Bit rate : 31 b/s
Count of elements : 1037
Stream size : 25.6 KiB (0%)
Title : English full
Language : English
Default : No
Forced : No
Menu
00: 00: 00.000 : : 00: 00: 00.000
00: 08: 23.670 : : 00: 08: 23.670
00: 17: 46.440 : : 00: 17: 46.440
00: 29: 12.000 : : 00: 29: 12.000
00: 38: 37.440 : : 00: 38: 37.440
00: 46: 11.769 : : 00: 46: 11.769
00: 57: 13.221 : : 00: 57: 13.221
01: 04: 04.299 : : 01: 04: 04.299
01: 13: 22.982 : : 01: 13: 22.982
01: 19: 39.942 : : 01: 19: 39.942
01: 30: 58.620 : : 01: 30: 58.620
01: 40: 57.051 : : 01: 40: 57.051

x264 info: frame I: 1006 Avg QP: 15.71 size: 248955
x264 info: frame P: 32339 Avg QP: 16.64 size: 110339
x264 info: frame B: 130159 Avg QP: 18.24 size: 45865
x264 info: consecutive B-frames: 1.8% 2.3% 5.7% 18.0% 14.2% 24.1% 10.7% 15.1% 2.6% 0.7% 0.7% 2.4% 0.3% 0.1% 0.1% 0.2% 0.9%
x264 info: mb I I16..4: 8.6% 75.7% 15.8%
x264 info: mb P I16..4: 1.3% 8.2% 1.1% P16..4: 38.3% 22.9% 19.0% 1.0% 0.3% skip: 7.8%
x264 info: mb B I16..4: 0.1% 1.1% 0.1% B16..8: 39.4% 11.4% 4.5% direct: 12.0% skip: 31.5% L0: 42.7% L1: 41.2% BI: 16.1%
x264 info: 8x8 transform intra: 78.7% inter: 52.4%
x264 info: direct mvs spatial: 97.9% temporal: 2.1%
x264 info: coded y, uvDC, uvAC intra: 80.7% 78.9% 62.9% inter: 44.5% 38.9% 12.8%
x264 info: i16 v, h, dc, p: 54% 19% 9% 18%
x264 info: i8 v, h, dc, ddl, ddr, vr, hd, vl, hu: 12% 7% 15% 9% 12% 12% 11% 11% 10%
x264 info: i4 v, h, dc, ddl, ddr, vr, hd, vl, hu: 33% 6% 6% 7% 11% 10% 9% 8% 8%
x264 info: i8c dc, h, v, p: 51% 18% 17% 14%
x264 info: Weighted P-Frames: Y: 6.0% UV: 2.4%
x264 info: ref P L0: 47.3% 10.9% 22.6% 9.0% 9.6% 0.6% 0.0%
x264 info: ref B L0: 76.8% 15.9% 5.8% 1.5%
x264 info: ref B L1: 93.9% 6.1%
x264 info: kb/s: 11482.95

Скриншоты для ознакомления



Все одноименные релизы в Клубе
Время раздачи: 24/7 (круглосуточно) (до появления первых 3-5 скачавших)
 
Уважаемый посетитель, Вы зашли на сайт как незарегистрированный пользователь. Мы рекомендуем Вам зарегистрироваться либо зайти на сайт под своим именем.

Другие новости по теме:

  • В ожидании варваров / Waiting for the Barbarians (2019) WEB-DL [H.264 / 1080p] [MVO]
  • В ожидании варваров / Waiting for the Barbarians (2019) BDRip [H.264 / 1080p] [PR]
  • В ожидании варваров / Waiting for the Barbarians (2019) BDRemux [H.264 / 1080p]
  • В ожидании варваров / Waiting for the Barbarians (2019) BDRip [H.264 / 720p]


  • Информация
    Посетители, находящиеся в группе Гости, не могут оставлять комментарии в данной новости.
    Главная страница | Регистрация | Добавить новость | Новое на сайте Copyright © 2019. bolt.mmix.club All Rights Reserved