Подписывайся на наш канал в Telegram https://t.me/torrentok и получи доступ к торрентам без ограничений!
. bolt.mmix.club
Авторские права
con...@...Показать
Вход на сайт
Логин:
Пароль:
 
Навигация по сайту
Популярные статьи

Торрент трекер | Скачать торрент | Скачать через Торрент | Скачать торрент бесплатно | Скачать торрент без регистрации Фильмы торрент скачать Бог грома / Mortal (2020) BDRemux [H.264 / 1080i] торрент скачать бесплатно

Бог грома / Mortal (2020) BDRemux [H.264 / 1080i] торрент скачать бесплатно

Фильмы торрент скачать
Бог грома / Mortal (2020) BDRemux [H.264 / 1080i]Производство: Норвегия, США, Великобритания/42, Automatik Entertainment, Eldorado Film
Жанр: Фэнтези, боевик, приключения
Режиссер: Андре Овредал
Продюсер: Рори Аиткен, Джон Эйнар Хаген, Брайан Кэвэна-Джонс

Актеры
Нат Вулф, Приянка Бозе, Ибен М. Акерлие, Артур Хакалахти, Оддрун Валестранд, Равдип Сингх Баджва, Аня Нова, Суннива Линд Ховерстад, Пер Фриш, Нико Русаков

Описание

Повелевать стихией, обращать в пепел прикосновением и заставлять всё живое трепетать от страха — удел языческих богов. Но что произойдет, когда планета столкнется с одним из них во плоти? Ведь этот древний Бог всего лишь человек.


Возраст: 16+ (зрителям, достигшим 16 лет)
Дата мировой премьеры: 28 февраля 2020
Цифровой релиз: 2 июня 2020, Вольга
Релиз от: selezen
Продолжительность: 01: 40: 20
Качество видео: BDRemux
Перевод: Дублированный (iTunes)
Субтитры: Русские (Full, SDH), Английские
Видео: AVC/H.264, 1920x1080, ~19.2 Mbps
Аудио 1: AC3, 6 ch, 384 Kbps - Русский (DUB, iTunes)
Аудио 2: DTS-HD MA, 6 ch, 4636 Kbps - Норвежский
Аудио 3: DTS-HD MA, 6 ch, 4123 Kbps - Французский
General
Unique ID : 184488810989421908849714421350265502727 (0x8ACB40A70B51C21DF7FB79E321ABBC07)
Complete name : D: Video111Mortal.2020.BDREMUX.1080i.seleZen.mkv
Format : Matroska
Format version : Version 4
File size : 19.9 GiB
Duration : 1 h 40 min
Overall bit rate mode : Variable
Overall bit rate : 28.3 Mb/s
Movie name : Mortal 2020 from селезень
Encoded date : UTC 2020-08-29 22: 44: 26
Writing application : mkvmerge v40.0.0 (\'Old Town Road + Pony\') 64-bit
Writing library : libebml v1.3.9 + libmatroska v1.5.2
Video
ID : 1
Format : AVC
Format/Info : Advanced Video Codec
Format profile : High@L4.1
Format settings : CABAC/4 Ref Frames
Format settings, CABAC : Yes
Format settings, Reference : 4 frames
Codec ID : V_MPEG4/ISO/AVC
Duration : 1 h 40 min
Bit rate mode : Variable
Bit rate : 19.2 Mb/s
Maximum bit rate : 25.0 Mb/s
Width : 1 920 pixels
Height : 1 080 pixels
Display aspect ratio : 16: 9
Frame rate mode : Variable
Frame rate : 50.000 FPS
Original frame rate : 25.000 FPS
Color space : YUV
Chroma subsampling : 4: 2: 0
Bit depth : 8 bits
Scan type : Interlaced
Scan type, store method : Separated fields
Scan order : Top Field First
Bits/(Pixel*Frame) : 0.185
Stream size : 13.5 GiB (68%)
Language : French
Default : Yes
Forced : No
Color range : Limited
Color primaries : BT.709
Transfer characteristics : BT.709
Matrix coefficients : BT.709
Audio #1
ID : 2
Format : AC-3
Format/Info : Audio Coding 3
Commercial name : Dolby Digital
Codec ID : A_AC3
Duration : 1 h 40 min
Bit rate mode : Constant
Bit rate : 384 kb/s
Channel(s) : 6 channels
Channel layout : L R C LFE Ls Rs
Sampling rate : 48.0 kHz
Frame rate : 31.250 FPS (1536 SPF)
Compression mode : Lossy
Stream size : 276 MiB (1%)
Title : iTunes
Language : Russian
Service kind : Complete Main
Default : Yes
Forced : Yes
Audio #2
ID : 3
Format : DTS XLL
Format/Info : Digital Theater Systems
Commercial name : DTS-HD Master Audio
Codec ID : A_DTS
Duration : 1 h 40 min
Bit rate mode : Variable
Bit rate : 4 636 kb/s
Channel(s) : 6 channels
Channel layout : C L R Ls Rs LFE
Sampling rate : 48.0 kHz
Frame rate : 93.750 FPS (512 SPF)
Bit depth : 24 bits
Compression mode : Lossless
Stream size : 3.25 GiB (16%)
Title : Original
Language : Norwegian
Default : No
Forced : No
Audio #3
ID : 4
Format : DTS XLL
Format/Info : Digital Theater Systems
Commercial name : DTS-HD Master Audio
Codec ID : A_DTS
Duration : 1 h 40 min
Bit rate mode : Variable
Bit rate : 4 123 kb/s
Channel(s) : 6 channels
Channel layout : C L R Ls Rs LFE
Sampling rate : 48.0 kHz
Frame rate : 93.750 FPS (512 SPF)
Bit depth : 24 bits
Compression mode : Lossless
Stream size : 2.89 GiB (15%)
Title : Original
Language : French
Default : No
Forced : No
Text #1
ID : 5
Format : UTF-8
Codec ID : S_TEXT/UTF8
Codec ID/Info : UTF-8 Plain Text
Duration : 1 h 32 min
Bit rate : 50 b/s
Count of elements : 540
Stream size : 34.1 KiB (0%)
Title : Full
Language : Russian
Default : No
Forced : No
Text #2
ID : 6
Format : UTF-8
Codec ID : S_TEXT/UTF8
Codec ID/Info : UTF-8 Plain Text
Duration : 1 h 33 min
Bit rate : 61 b/s
Count of elements : 735
Stream size : 41.8 KiB (0%)
Title : SDH
Language : Russian
Default : No
Forced : No
Text #3
ID : 7
Format : UTF-8
Codec ID : S_TEXT/UTF8
Codec ID/Info : UTF-8 Plain Text
Duration : 1 h 25 min
Bit rate : 30 b/s
Count of elements : 528
Stream size : 18.8 KiB (0%)
Language : English
Default : No
Forced : No
Menu
00: 00: 00.000 : en: 00: 00: 00.000
00: 11: 06.360 : en: 00: 11: 06.360
00: 27: 39.200 : en: 00: 27: 39.200
00: 41: 14.200 : en: 00: 41: 14.200
00: 49: 10.280 : en: 00: 49: 10.280
01: 06: 59.440 : en: 01: 06: 59.440
01: 16: 53.200 : en: 01: 16: 53.200
01: 33: 44.320 : en: 01: 33: 44.320

Скриншоты для ознакомления



Все одноименные релизы в Клубе
Время раздачи: 24/7 (мультитрекер)
 
Уважаемый посетитель, Вы зашли на сайт как незарегистрированный пользователь. Мы рекомендуем Вам зарегистрироваться либо зайти на сайт под своим именем.

Другие новости по теме:

  • Бог грома / Mortal (2020) WEB-DLRip [MVO] [AD]
  • Бог грома / Mortal (2020) WEB-DLRip [H.264 / 1080p-LQ] [MVO] [AD]
  • Бог грома / Mortal (2020) WEB-DL [H.264 / 1080p-LQ]
  • Бог грома / Mortal (2020) WEB-DLRip
  • Бог грома / Mortal (2020) WEB-DL [1080p] ATV3
  • Бог грома / Mortal (2020) WEB-DL [H.264 / 1080p-LQ]
  • Бог грома / Mortal (2020) WEB-DL [H.264 / 720p-LQ]
  • Бог грома / Mortal (2020) BDRip [H.264 / 1080p]


  • Информация
    Посетители, находящиеся в группе Гости, не могут оставлять комментарии в данной новости.
    Главная страница | Регистрация | Добавить новость | Новое на сайте Copyright © 2019. bolt.mmix.club All Rights Reserved