Подписывайся на наш канал в Telegram https://t.me/torrentok и получи доступ к торрентам без ограничений!
. bolt.mmix.club
Авторские права
con...@...Показать
Вход на сайт
Логин:
Пароль:
 
Навигация по сайту
Популярные статьи

Торрент трекер | Скачать торрент | Скачать через Торрент | Скачать торрент бесплатно | Скачать торрент без регистрации Фильмы торрент скачать Пограничье в огне / Pogranicze w ogniu (1988-1991) WEB-DLRip [H.264] (сезон 1-2, серии 1-24 из 24) [PL] торрент скачать бесплатно

Пограничье в огне / Pogranicze w ogniu (1988-1991) WEB-DLRip [H.264] (сезон 1-2, серии 1-24 из 24) [PL] торрент скачать бесплатно

Фильмы торрент скачать
Пограничье в огне / Pogranicze w ogniu (1988-1991) WEB-DLRip [H.264] (сезон 1-2, серии 1-24 из 24) [PL]Производство: Польша/Studio Filmowe Perspektywa, Telmar Film International Ltd.
Жанр: боевик, приключения
Режиссер: Анджей Кониц

Актеры
Цезары Пазура, Оляф Любашенко, Януш Буковски, Ханна Полк, Петр Жимышкевич, Жанна Янковская-Гусаковская, Ян Мончка, Ася Ламтюгина, Барбара Солтысик, Марек Гершал и др.

Описание

Сериал рассказывает о противостоянии спецслужб Польши и Германии в 1917-1939 годах в котом участвуют два друга детства Чарек Адамский и Фрэнек Релке. Оба они принимают участие в Великопольском восстании, сначала на одной (польской) стороне, но затем Чарек вступает в новообразованную польскую армию, а Франек переходит на немецкую сторону.


Продолжительность: ~ 00: 56: 00 серия
Качество видео: WEB-DLRip
Перевод: отсутствует
Язык озвучки: польский
Субтитры: отсутствуют
Реклама: отсутствует
Видео: AVC/H.264, 768x576@1024x576 (4: 3), ~1638 kbps
Аудио: AC3, 2 ch, 192 kbps - польский
General
Unique ID : 209390360356864501727565846971420822600 (0x9D871DD37362618DB8544CA79CE0CC48)
Complete name : Pogranicze.w.ogniu.E01.mkv
Format : Matroska
Format version : Version 4
File size : 797 MiB
Duration : 1 h 0 min
Overall bit rate : 1 831 kb/s
Encoded date : UTC 2020-08-20 08: 49: 52
Writing application : mkvmerge v8.3.0 (\'Over the Horizon\') 32bit
Writing library : libebml v1.3.1 + libmatroska v1.4.2
Video
ID : 1
Format : AVC
Format/Info : Advanced Video Codec
Format profile : High@L4.1
Format settings : CABAC/7 Ref Frames
Format settings, CABAC : Yes
Format settings, Reference : 7 frames
Format settings, GOP : M=3, N=13
Codec ID : V_MPEG4/ISO/AVC
Duration : 1 h 0 min
Bit rate : 1 638 kb/s
Width : 768 pixels
Original width : 1 024 pixels
Height : 576 pixels
Display aspect ratio : 4: 3
Original display aspect rat : 16: 9
Frame rate mode : Constant
Frame rate : 25.000 FPS
Color space : YUV
Chroma subsampling : 4: 2: 0
Bit depth : 8 bits
Scan type : Progressive
Bits/(Pixel*Frame) : 0.148
Stream size : 713 MiB (89%)
Default : Yes
Forced : No
Color range : Full
Audio
ID : 2
Format : AC-3
Format/Info : Audio Coding 3
Commercial name : Dolby Digital
Codec ID : A_AC3
Duration : 1 h 0 min
Bit rate mode : Constant
Bit rate : 192 kb/s
Channel(s) : 2 channels
Channel layout : L R
Sampling rate : 44.1 kHz
Frame rate : 28.711 FPS (1536 SPF)
Compression mode : Lossy
Delay relative to video : -11 ms
Stream size : 83.4 MiB (10%)
Service kind : Complete Main
Default : Yes
Forced : No

Скриншоты для ознакомления



Все одноименные релизы в Клубе
Время раздачи: с 09: 00 до 18: 00 (до появления первых 3-5 скачавших)
 
Уважаемый посетитель, Вы зашли на сайт как незарегистрированный пользователь. Мы рекомендуем Вам зарегистрироваться либо зайти на сайт под своим именем.

Другие новости по теме:

  • BorderZone / Пограничье (2005) [Ru / En] (1.6) License PROPHET скачать через торрент бесплатно
  • Книжная серия | Межавторский цикл «Пограничье» [5 книг] (2013-2015) [FB2, EPUB] скачать через торрент бесплатно
  • Книжная серия | Межавторский цикл «Пограничье» [7 книг. Обновляемая] (2013-2016) [FB2, EPUB]
  • Imawa no Kuni no Alice | Alice in Borderland | Элис в Пограничье [2014, OVA, 3] HDTVRip 720p raw
  • Книжная серия | Межавторский цикл «Пограничье» [9 книг. Обновляемая] (2013-2017) [FB2, EPUB]


  • Информация
    Посетители, находящиеся в группе Гости, не могут оставлять комментарии в данной новости.
    Главная страница | Регистрация | Добавить новость | Новое на сайте Copyright © 2019. bolt.mmix.club All Rights Reserved