Подписывайся на наш канал в Telegram https://t.me/torrentok и получи доступ к торрентам без ограничений!
. bolt.mmix.club
Авторские права
con...@...Показать
Вход на сайт
Логин:
Пароль:
 
Навигация по сайту
Популярные статьи

Торрент трекер | Скачать торрент | Скачать через Торрент | Скачать торрент бесплатно | Скачать торрент без регистрации Фильмы торрент скачать Игра оборотня: Побег из тюрьмы / Jinrou gemu: Purizun bureiku / The Werewolf Game: Prison Break (2016) WEB-DLRip [DVO] торрент скачать бесплатно

Игра оборотня: Побег из тюрьмы / Jinrou gemu: Purizun bureiku / The Werewolf Game: Prison Break (2016) WEB-DLRip [DVO] торрент скачать бесплатно

Фильмы торрент скачать
Игра оборотня: Побег из тюрьмы / Jinrou gemu: Purizun bureiku / The Werewolf Game: Prison Break (2016) WEB-DLRip [DVO]Производство: Япония, AMG Entertainment
Жанр: Ужасы, триллер
Режиссер: Синъя Аябэ

Актеры
Ририа Баба, Сёго Хама, Канон Ханакагэ, Даити Канэко, Рина Кояма, Нацуми Окамото, Наоя Симидзу, Рё Синода, Ютаро Ватанабэ, Касуми Ямая

Описание

Японская серия фильмов на выживание The Werewolf Game, аналог игры Мафия. 4 фильм данной серии Побег из тюрьмы. Акари Инуи и несколько других ребят были похищены и заперты. Чтобы пройти игру, им нужно убивать и постараться самим остаться в живых. Последний выживший получит в награду сто миллионов йен.


Релиз от: Rip by vitolinform
Продолжительность: 01: 39: 42
Качество видео: WEB-DLRip
Перевод: Двуголосый любительский (XDUB DORAMA)
Субтитры: отсутствуют
Видео: Xvid, 720x384, ~1512 kbps
Аудио 1: AC3, 2 ch, 192 Кbps | Русский (DVO, XDUB DORAMA)
Аудио 2: AC3, 2 ch, 384 Кbps | Японский
Общее
Полное имя : C: Oboroten.Pobeg.iz.tyurmy.2016.WEB-DLRip.avi
Формат : AVI
Формат/Информация : Audio Video Interleave
Размер файла : 1, 46 Гбайт
Продолжительность : 1 ч. 39 м.
Общий поток : 2 102 Кбит/сек
Название фильма : Игра оборотня: Побег из тюрьмы/Jinrou gemu: Purizun bureiku/The Werewolf Game: Prison Break (2016) WEB-DLRip
Режиссёр : Синъя Аябэ/(Shin\'ya Ayabe aka Shinya Ayabe)
Жанр : Ужасы, триллер
Программа кодирования : VirtualDubMod 1.5.10.2 (build 2542/release)
Формат оригинала/Имя : Художественный фильм
Авторское право : Япония, AMG Entertainment
Примечание : Rip by vitolinform
Видео
Идентификатор : 0
Формат : MPEG-4 Visual
Профиль формата : Advanced Simple@L5
Настройки формата : BVOP1
Параметр BVOP формата : 1
Параметр QPel формата : Нет
Параметр GMC формата : Без точки перехода
Параметр матрицы формата : Default (MPEG)
Идентификатор кодека : XVID
Идентификатор кодека/Подсказка : XviD
Продолжительность : 1 ч. 39 м.
Битрейт : 1 512 Кбит/сек
Ширина : 720 пикселей
Высота : 384 пикселя
Соотношение сторон : 1, 85: 1
Частота кадров : 23, 976 (24000/1001) кадра/сек
Цветовое пространство : YUV
Субдискретизация насыщенности : 4: 2: 0
Битовая глубина : 8 бит
Тип развёртки : Прогрессивная
Метод сжатия : С потерями
Бит/(Пиксели*Кадры) : 0.228
Размер потока : 1, 05 Гбайт (72%)
Библиотека кодирования : XviD 69
Аудио #1
Идентификатор : 1
Формат : AC-3
Формат/Информация : Audio Coding 3
Коммерческое название : Dolby Digital
Идентификатор кодека : 2000
Продолжительность : 1 ч. 39 м.
Вид битрейта : Постоянный
Битрейт : 192 Кбит/сек
Каналы : 2 канала
Channel layout : L R
Частота : 48, 0 КГц
Частота кадров : 31, 250 кадров/сек (1536 SPF)
Метод сжатия : С потерями
Размер потока : 137 Мбайт (9%)
Выравнивание : Разделение по промежуткам
Продолжительность промежутка : 42 мс. (1, 00 видеокадр)
Время предзагрузки промежутка : 500 мс.
Заголовок : Russian (DVO, XDUB DORAMA)
Service kind : Complete Main
Аудио #2
Идентификатор : 2
Формат : AC-3
Формат/Информация : Audio Coding 3
Коммерческое название : Dolby Digital
Идентификатор кодека : 2000
Продолжительность : 1 ч. 39 м.
Вид битрейта : Постоянный
Битрейт : 384 Кбит/сек
Каналы : 6 каналов
Channel layout : L R C LFE Ls Rs
Частота : 48, 0 КГц
Частота кадров : 31, 250 кадров/сек (1536 SPF)
Метод сжатия : С потерями
Размер потока : 274 Мбайт (18%)
Выравнивание : Разделение по промежуткам
Продолжительность промежутка : 42 мс. (1, 00 видеокадр)
Время предзагрузки промежутка : 500 мс.
Заголовок : Japanese
Service kind : Complete Main
 
Уважаемый посетитель, Вы зашли на сайт как незарегистрированный пользователь. Мы рекомендуем Вам зарегистрироваться либо зайти на сайт под своим именем.

Другие новости по теме:

  • Артур Осколков | Игра из Тени (2020) [FB2]
  • Marvel’s Spider-Man GOTY / Человек-паук: Издание Игра года (2018) [PS4] [EUR] 5.05 [HEN] [License / 1.17 / DLC] [Ru / Multi]
  • Академия SEO | SEO Игра. Самая масштабная тренинг-игра в СНГ (2017) PCRec
  • Л.В. Былеева, В.А. Таборко | Игра.. Игра! (1988) [PDF]
  • Игра в классики / Hopscotch (1980) DVDRip [H.264] [VO]
  • Игра без правил (1965) DVBRip
  • Что Где Когда Осенняя серия игр. Игра 4 (2014.09.27) SATRip
  • Настольная игра | Munchkin / Манчкин (Fallout) (2014) [JPEG, DOC]


  • Информация
    Посетители, находящиеся в группе Гости, не могут оставлять комментарии в данной новости.
    Главная страница | Регистрация | Добавить новость | Новое на сайте Copyright © 2019. bolt.mmix.club All Rights Reserved