Подписывайся на наш канал в Telegram https://t.me/torrentok и получи доступ к торрентам без ограничений!
. bolt.mmix.club
Авторские права
con...@...Показать
Вход на сайт
Логин:
Пароль:
 
Навигация по сайту
Популярные статьи

Торрент трекер | Скачать торрент | Скачать через Торрент | Скачать торрент бесплатно | Скачать торрент без регистрации Фильмы торрент скачать Преследование / Bumperkleef (2019) BDRip [H.264 / 720p-LQ] торрент скачать бесплатно

Преследование / Bumperkleef (2019) BDRip [H.264 / 720p-LQ] торрент скачать бесплатно

Фильмы торрент скачать
Преследование / Bumperkleef (2019) BDRip [H.264 / 720p-LQ]Производство: Нидерланды/Topkapi Films, AVROTROS, Savage Film
Жанр: Ужасы, Триллер
Режиссер: Лодевейк Крейнс
Продюсер: Арнольд Хесленфельд, Лоретт Шиллингс, Франс ван Гестель

Актеры
Ерун Шпиценбергер, Анник Фейфер, Розмарин ван дер Хук, Лиз Вергер, Вилем де Вольф, Труус те Селле, Хьюберт Фермин, Тим Линде, Питер Бланкенстейн, Стэйси Матла

Описание

Молодая семья отправляется в путешествие на автомобиле. Уверенный в себе отец семейства совершает опасный маневр, подгоняя нерасторопного водителя минивэна. Однако такая дерзость не остается безнаказанной, и минивэн начинает преследование обидчика. Никто не мог представить, что эта поездка для всей семьи превратится в настоящую борьбу за жизнь.


Возраст: 16+ (зрителям, достигшим 16 лет)
Дата мировой премьеры: 30 сентября 2019
Цифровой релиз: 7 мая 2020, Вольга
Релиз от: SergeyAms
Продолжительность: 01: 25: 19
Качество видео: BDRip
Перевод: Дублированный (iTunes)
Субтитры: Русские (полные)
Видео: AVC/H.264, 1280x536, ~2500 kbps
Аудио #1: AC3, 6 ch, 384 Kbps - Русский
x264 info: frame I: 1008 Avg QP: 17.43 size: 71795
x264 info: frame P: 32454 Avg QP: 20.19 size: 25741
x264 info: frame B: 89408 Avg QP: 21.65 size: 7708
Unique ID : 109583278481159263684168221285158603246 (0x5270F8C427DE55FDFFA4F6A77619C9EE)
Complete name : D: TempNNMBumperkleef.2019.720p.mkv
Format : Matroska
Format version : Version 4/Version 2
File size : 1.72 GiB
Duration : 1h 25mn
Overall bit rate : 2 883 Kbps
Movie name : Bumperkleef 2019
Writing library : Lavf57.71.100
Video
ID : 1
Format : AVC
Format/Info : Advanced Video Codec
Format profile : High@L4.1
Format settings, CABAC : Yes
Format settings, ReFrames : 12 frames
Codec ID : V_MPEG4/ISO/AVC
Duration : 1h 25mn
Bit rate : 2 500 Kbps
Width : 1 280 pixels
Height : 536 pixels
Display aspect ratio : 2.40: 1
Frame rate mode : Constant
Frame rate : 24.000 fps
Color space : YUV
Chroma subsampling : 4: 2: 0
Bit depth : 8 bits
Scan type : Progressive
Bits/(Pixel*Frame) : 0.152
Stream size : 1.46 GiB (85%)
Writing library : x264 core 157 r2935 545de2f
Encoding settings : cabac=1/ref=12/deblock=1: -1: -1/analyse=0x3: 0x133/me=umh/subme=9/psy=1/psy_rd=1.05: 0.10/mixed_ref=1/me_range=24/chroma_me=1/trellis=2/8x8dct=1/cqm=0/deadzone=21, 11/fast_pskip=0/chroma_qp_offset=-3/threads=13/lookahead_threads=2/sliced_threads=0/nr=0/decimate=0/interlaced=0/bluray_compat=0/constrained_intra=0/bframes=9/b_pyramid=2/b_adapt=2/b_bias=0/direct=1/weightb=1/open_gop=0/weightp=2/keyint=240/keyint_min=24/scenecut=40/intra_refresh=0/rc=2pass/mbtree=0/bitrate=2500/ratetol=1.0/qcomp=0.70/qpmin=3/qpmax=69/qpstep=4/cplxblur=20.0/qblur=0.5/ip_ratio=1.40/pb_ratio=1.30/aq=2: 1.00
Language : German
Default : Yes
Forced : No
Audio
ID : 2
Format : AC-3
Format/Info : Audio Coding 3
Mode extension : CM (complete main)
Format settings, Endianness : Big
Codec ID : A_AC3
Duration : 1h 25mn
Bit rate mode : Constant
Bit rate : 384 Kbps
Channel(s) : 6 channels
Channel positions : Front: L C R, Side: L R, LFE
Sampling rate : 48.0 KHz
Bit depth : 16 bits
Compression mode : Lossy
Stream size : 234 MiB (13%)
Title : iTunes
Language : Russian
Default : Yes
Forced : Yes
Text
ID : 3
Format : UTF-8
Codec ID : S_TEXT/UTF8
Codec ID/Info : UTF-8 Plain Text
Title : Full
Language : Russian
Default : Yes
Forced : No
Menu
00: 00: 00.000 : : Глава 01
00: 10: 21.000 : : Глава 02
00: 19: 33.000 : : Глава 03
00: 30: 24.000 : : Глава 04
00: 41: 19.000 : : Глава 05
00: 52: 08.000 : : Глава 06
01: 01: 40.000 : : Глава 07
01: 13: 35.000 : : Глава 08
01: 21: 02.000 : : Глава 09

Скриншоты для ознакомления



Все одноименные релизы в Клубе
Время раздачи: 24/7 (мультитрекер)
 
Уважаемый посетитель, Вы зашли на сайт как незарегистрированный пользователь. Мы рекомендуем Вам зарегистрироваться либо зайти на сайт под своим именем.

Другие новости по теме:

  • Преследование / Bumperkleef (2019) BDRemux [H.264 / 1080p]
  • Преследование / Bumperkleef (2019) BDRip [H.264 / 1080p]
  • Преследование / Bumperkleef (2019) WEB-DLRip [MVO] [AD]
  • Преследование / Bumperkleef (2019) WEB-DLRip [H.264 / 1080p-LQ] [MVO] [AD]
  • Преследование / Bumperkleef / Tailgate (2019) WEB-DLRip
  • Преследование / Bumperkleef / Tailgate (2019) WEB-DL [H.264 / 1080p-LQ]
  • Преследование / Bumperkleef (2019) WEB-DL [H.264 / 720p-LQ]


  • Информация
    Посетители, находящиеся в группе Гости, не могут оставлять комментарии в данной новости.
    Главная страница | Регистрация | Добавить новость | Новое на сайте Copyright © 2019. bolt.mmix.club All Rights Reserved