Подписывайся на наш канал в Telegram https://t.me/torrentok и получи доступ к торрентам без ограничений!
. bolt.mmix.club
Авторские права
con...@...Показать
Вход на сайт
Логин:
Пароль:
 
Навигация по сайту
Популярные статьи

Торрент трекер | Скачать торрент | Скачать через Торрент | Скачать торрент бесплатно | Скачать торрент без регистрации Фильмы торрент скачать Ангел наполовину / Half Angel (1951) DVDRip [H.264] [AVO] торрент скачать бесплатно

Ангел наполовину / Half Angel (1951) DVDRip [H.264] [AVO] торрент скачать бесплатно

Фильмы торрент скачать
Ангел наполовину / Half Angel (1951) DVDRip [H.264] [AVO]Производство: США/20th Century Fox Film Corporation
Жанр: Мелодрама, Комедия
Режиссер: Ричард Сейл
Продюсер: Джулиан Блаустин

Актеры
Лоретта Янг, Джозеф Коттен, Сесил Келлауэй, Бэзил Руисдейл, Джим Бакус, Айрин Райан, Джон Риджли, Лу Нова, Роберт Адлер, Ральф Брукс

Описание

В ближайших планах скромной медсестры Норы Гилпин - выйти замуж за Тима МакКэри, строительного подрядчика, и жить нормальной, спокойной жизнью. Но в то же время она тайно увлечена адвокатом Джоном Рэймондом. Правда ей приходится убеждать себя, что она совсем его не любит. Однако по ночам под воздействием лунатизма в Норе пробуждается другая, более сексуальная личность.


Рейтинг MPAA: PG (рекомендуется присутствие родителей)
Релиз от: Охрана (NNMCLUB)
Продолжительность: 01: 16: 44
Качество видео: DVDRip
Перевод: Авторский, Алексей Яковлев
Субтитры: Отсутствуют
Видео: AVC/H.264, 720x544, ~2010 Kbps
Аудио 1: AC3, 2 ch, 192 Kbps, 48.0 kHz – Русский
Аудио 2: AC3, 2 ch, 192 Kbps, 48.0 kHz – Английский
Общее
Уникальный идентификатор : 187708807765432359249785205082863474905 (0x8D3766C03050DB5C80E9FDDE928C98D9)
Полное имя : D: DownloadsАнгел наполовину. 1951. NNMCLUB.mkv
Формат : Matroska
Версия формата : Version 4/Version 2
Размер файла : 1, 28 Гбайт
Продолжительность : 1 ч. 16 м.
Общий поток : 2396 Кбит/сек
Дата кодирования : UTC 2020-08-18 10: 10: 34
Программа кодирования : mkvmerge v7.9.0 (\'Birds\') 64bit
Библиотека кодирования : libebml v1.3.1 + libmatroska v1.4.2
Видео
Идентификатор : 1
Формат : AVC
Формат/Информация : Advanced Video Codec
Профиль формата : High@L4.1
Настройки формата : CABAC/12 Ref Frames
Параметр CABAC формата : Да
Параметр RefFrames формата : 12 кадров
Идентификатор кодека : V_MPEG4/ISO/AVC
Продолжительность : 1 ч. 16 м.
Битрейт : 2010 Кбит/сек
Ширина : 720 пикселей
Высота : 544 пикселя
Соотношение сторон : 4: 3
Режим частоты кадров : Постоянный
Частота кадров : 23, 976 (24000/1001) кадра/сек
Цветовое пространство : YUV
Субдискретизация насыщенности : 4: 2: 0
Битовая глубина : 8 бит
Тип развёртки : Прогрессивная
Бит/(Пиксели*Кадры) : 0.214
Размер потока : 1, 08 Гбайт (84%)
Заголовок : Half Angel
Библиотека кодирования : x264 core 146 r2538 121396c
Настройки программы : cabac=1/ref=12/deblock=1: -1: -1/analyse=0x3: 0x113/me=umh/subme=10/psy=1/psy_rd=1.00: 0.10/mixed_ref=1/me_range=32/chroma_me=1/trellis=2/8x8dct=1/cqm=0/deadzone=21, 11/fast_pskip=0/chroma_qp_offset=-3/threads=6/lookahead_threads=1/sliced_threads=0/nr=0/decimate=0/interlaced=0/bluray_compat=0/constrained_intra=0/bframes=9/b_pyramid=2/b_adapt=2/b_bias=0/direct=3/weightb=1/open_gop=0/weightp=2/keyint=250/keyint_min=25/scenecut=40/intra_refresh=0/rc_lookahead=60/rc=2pass/mbtree=1/bitrate=2010/ratetol=1.0/qcomp=0.60/qpmin=0/qpmax=69/qpstep=4/cplxblur=20.0/qblur=0.5/vbv_maxrate=14000/vbv_bufsize=14000/nal_hrd=none/filler=0/ip_ratio=1.40/aq=1: 1.00
Язык : English
Default : Да
Forced : Нет
Аудио #1
Идентификатор : 2
Формат : AC-3
Формат/Информация : Audio Coding 3
Идентификатор кодека : A_AC3
Продолжительность : 1 ч. 16 м.
Вид битрейта : Постоянный
Битрейт : 192 Кбит/сек
Каналы : 2 канала
Расположение каналов : Front: L R
Частота : 48, 0 КГц
Частота кадров : 31, 250 кадров/сек (1536 SPF)
Битовая глубина : 16 бит
Метод сжатия : С потерями
Размер потока : 105 Мбайт (8%)
Заголовок : Авторский, Алексей Яковлев
Язык : Russian
ServiceKind/String : Complete Main
Default : Да
Forced : Нет
Аудио #2
Идентификатор : 3
Формат : AC-3
Формат/Информация : Audio Coding 3
Идентификатор кодека : A_AC3
Продолжительность : 1 ч. 16 м.
Вид битрейта : Постоянный
Битрейт : 192 Кбит/сек
Каналы : 2 канала
Расположение каналов : Front: L R
Частота : 48, 0 КГц
Частота кадров : 31, 250 кадров/сек (1536 SPF)
Битовая глубина : 16 бит
Метод сжатия : С потерями
Размер потока : 105 Мбайт (8%)
Заголовок : Английский
Язык : English
ServiceKind/String : Complete Main
Default : Нет
Forced : Нет

Скриншоты для ознакомления




Все одноименные релизы в Клубе
Время раздачи: с 13: 00 до 01: 00 МСК, выходные круглосуточно (до появления первых 3-5 скачавших)
 
Уважаемый посетитель, Вы зашли на сайт как незарегистрированный пользователь. Мы рекомендуем Вам зарегистрироваться либо зайти на сайт под своим именем.

Другие новости по теме:

  • Ангел, ангел, вниз мы идем / Культ проклятых / Cult of the Damned / Angel, Angel, Down We Go (1969) HDTV [H.264 / 1080i] скачать через торрент бесплатно
  • Ангел вострубил (2013) DVDRip скачать через торрент бесплатно
  • Ангел вострубил (2002) DVD5 скачать через торрент бесплатно
  • Ангел-А / Angel-A (2005) BDRip [576p] iPad скачать через торрент бесплатно
  • Юрий Петухов | Ангел возмездия (2015) [MP3] скачать через торрент бесплатно
  • Немезида 4: Ангел смерти / Nemesis 4: Death Angel (1996) BDRip [H.264] [VO]
  • Женщина в черном 2: Ангел смерти / The Woman in Black 2: Angel of Death (2014) WEB-DLRip [Line] скачать через торрент бесплатно
  • Женщина в черном 2: Ангел смерти / The Woman in Black 2: Angel of Death (2014) WEB-DL [720p] [Line] скачать через торрент бесплатно


  • Информация
    Посетители, находящиеся в группе Гости, не могут оставлять комментарии в данной новости.
    Главная страница | Регистрация | Добавить новость | Новое на сайте Copyright © 2019. bolt.mmix.club All Rights Reserved