Подписывайся на наш канал в Telegram https://t.me/torrentok и получи доступ к торрентам без ограничений!
. bolt.mmix.club
Авторские права
con...@...Показать
Вход на сайт
Логин:
Пароль:
 
Навигация по сайту
Популярные статьи

Торрент трекер | Скачать торрент | Скачать через Торрент | Скачать торрент бесплатно | Скачать торрент без регистрации Фильмы торрент скачать Человек-паук 3: Враг в отражении / Spider-Man 3 (2007) WEB-DLRip [H.264 / 720p-LQ] [Open Matte] торрент скачать бесплатно

Человек-паук 3: Враг в отражении / Spider-Man 3 (2007) WEB-DLRip [H.264 / 720p-LQ] [Open Matte] торрент скачать бесплатно

Фильмы торрент скачать
Человек-паук 3: Враг в отражении / Spider-Man 3 (2007) WEB-DLRip [H.264 / 720p-LQ] [Open Matte]Производство: США/Columbia Pictures, Marvel Studios, Laura Ziskin Productions
Жанр: фантастика, боевик, приключения
Режиссер: Сэм Рэйми

Актеры
Тоби Магуайр, Кирстен Данст, Джеймс Франко, Томас Хейден Чёрч, Тофер Грейс, Брайс Даллас Ховард, Розмари Харрис, Дж.К. Симмонс, Джеймс Кромуэлл, Илья Баскин

Описание

Прошло пять лет с тех пор, как Питер осознал, что с Великой силой приходит Великая ответственность!, и три года с тех пор, как он отказался быть борцом за справедливость. Но сейчас кажется, Питер прекрасно научился жить несколькими жизнями. Он хорошо учится, Нью-Йорк признал его героем, отношения с Мэри Джейн прочные. Питер даже намеревается сделать ей предложение!
Но к сожалению, его лучший друг Гарри Озборн по-прежнему считает, что именно Человек-паук несет ответственность за безвременную кончину его отца. Гарри намеревается отомстить ему в образе Нового Гоблина. В то же самое время на криминальной сцене Нью-Йорка появляется другой могущественный суперзлодей, известный как Песочный Человек.
Когда Человек-паук надевает таинственный черный костюм, его темная, более мстительная сторона полностью поглощает его. Эти трансформации заставляют его встретиться с самым сильным противником ― с самим собой…


Возраст: 12+ (зрителям, достигшим 12 лет)
Рейтинг MPAA: PG-13 (детям до 13 лет просмотр нежелателен)
Релиз от: LORDKILL
Продолжительность: 02: 19: 12
Качество видео: WEB-DLRip
Перевод: Дублированный
Субтитры: русские (форс., полные), английские
Видео: AVC/H.264, 1280x720, ~3775 Kbps
Аудио 1: AC-3, 6ch, 640 kbps - русский
Аудио 2: AC-3, 6ch, 640 kbps - английский
General
Unique ID : 237150220161641972031587828429465020583 (0xB269789599E86154DDD8222B2CBF68A7)
Complete name : F: ФИЛЬМЫРУТОРЧеловек-паук 3. Враг в отражении (Open Matte).WEB-DLRip 720p.mkv
Format : Matroska
Format version : Version 4
File size : 4.92 GiB
Duration : 2 h 19 min
Overall bit rate : 5 057 kb/s
Movie name : Человек-паук 3: Враг в отражении/Spider-Man 3 (2007) (Open Matte) - #LORDKILL#
Encoded date : UTC 2020-08-24 13: 42: 35
Writing application : mkvmerge v32.0.0 (\'Astral Progressions\') 64-bit
Writing library : libebml v1.3.7 + libmatroska v1.5.0
Video
ID : 1
Format : AVC
Format/Info : Advanced Video Codec
Format profile : High@L4.1
Format settings : CABAC/9 Ref Frames
Format settings, CABAC : Yes
Format settings, Reference : 9 frames
Codec ID : V_MPEG4/ISO/AVC
Duration : 2 h 19 min
Bit rate : 3 775 kb/s
Width : 1 280 pixels
Height : 720 pixels
Display aspect ratio : 16: 9
Frame rate mode : Constant
Frame rate : 23.976 (24000/1001) FPS
Color space : YUV
Chroma subsampling : 4: 2: 0
Bit depth : 8 bits
Scan type : Progressive
Bits/(Pixel*Frame) : 0.171
Stream size : 3.67 GiB (75%)
Writing library : x264 core 159 r2991 1771b55
Encoding settings : cabac=1/ref=9/deblock=1: -2: -2/analyse=0x3: 0x113/me=umh/subme=10/psy=1/psy_rd=1.00: 0.20/mixed_ref=1/me_range=32/chroma_me=1/trellis=2/8x8dct=1/cqm=0/deadzone=21, 11/fast_pskip=0/chroma_qp_offset=-3/threads=12/lookahead_threads=2/sliced_threads=0/nr=0/decimate=1/interlaced=0/bluray_compat=0/constrained_intra=0/bframes=9/b_pyramid=2/b_adapt=2/b_bias=0/direct=1/weightb=1/open_gop=0/weightp=2/keyint=240/keyint_min=23/scenecut=40/intra_refresh=0/rc=crf/mbtree=0/crf=20.0/qcomp=0.60/qpmin=0/qpmax=69/qpstep=4/ip_ratio=1.40/pb_ratio=1.30/aq=1: 1.00
Default : Yes
Forced : No
Audio #1
ID : 2
Format : AC-3
Format/Info : Audio Coding 3
Commercial name : Dolby Digital
Codec ID : A_AC3
Duration : 2 h 19 min
Bit rate mode : Constant
Bit rate : 640 kb/s
Channel(s) : 6 channels
Channel layout : L R C LFE Ls Rs
Sampling rate : 48.0 kHz
Frame rate : 31.250 FPS (1536 SPF)
Compression mode : Lossy
Stream size : 637 MiB (13%)
Title : Дубляж
Language : Russian
Service kind : Complete Main
Default : Yes
Forced : No
Audio #2
ID : 3
Format : AC-3
Format/Info : Audio Coding 3
Commercial name : Dolby Digital
Codec ID : A_AC3
Duration : 2 h 19 min
Bit rate mode : Constant
Bit rate : 640 kb/s
Channel(s) : 6 channels
Channel layout : L R C LFE Ls Rs
Sampling rate : 48.0 kHz
Frame rate : 31.250 FPS (1536 SPF)
Compression mode : Lossy
Stream size : 637 MiB (13%)
Language : English
Service kind : Complete Main
Default : No
Forced : No
Text #1
ID : 4
Format : UTF-8
Codec ID : S_TEXT/UTF8
Codec ID/Info : UTF-8 Plain Text
Duration : 2 h 18 min
Bit rate : 1 b/s
Count of elements : 35
Stream size : 1.63 KiB (0%)
Title : Forced
Language : Russian
Default : Yes
Forced : No
Text #2
ID : 5
Format : UTF-8
Codec ID : S_TEXT/UTF8
Codec ID/Info : UTF-8 Plain Text
Duration : 2 h 8 min
Bit rate : 61 b/s
Count of elements : 1144
Stream size : 57.8 KiB (0%)
Title : Full
Language : Russian
Default : No
Forced : No
Text #3
ID : 6
Format : UTF-8
Codec ID : S_TEXT/UTF8
Codec ID/Info : UTF-8 Plain Text
Duration : 2 h 15 min
Bit rate : 36 b/s
Count of elements : 1149
Stream size : 35.9 KiB (0%)
Language : English
Default : No
Forced : No
Menu
00: 00: 00.000 : en: Main Titles
00: 07: 59.813 : en: The Goblin\'s Lair
00: 16: 55.056 : en: Peter vs. Harry
00: 24: 44.983 : en: Some Memory Impairment
00: 30: 12.686 : en: The Review
00: 40: 08.531 : en: Welcome Home Harry!
00: 49: 24.587 : en: Armored Car
00: 59: 27.773 : en: We Were Wrong
01: 06: 34.574 : en: Bank Robbery
01: 15: 23.436 : en: Calling A Woman
01: 22: 16.723 : en: It\'s Over
01: 30: 17.829 : en: Dirt In Your Eye
01: 40: 46.374 : en: The Bell Tower
01: 49: 10.836 : en: City In Crisis
01: 59: 57.148 : en: Film\'s Extra
02: 06: 11.355 : en: I Didn\'t Want This

Скриншоты для ознакомления




Все одноименные релизы в Клубе
Время раздачи: 24/7 (мультитрекерная раздач) (до появления первых 3-5 скачавших)
 
Уважаемый посетитель, Вы зашли на сайт как незарегистрированный пользователь. Мы рекомендуем Вам зарегистрироваться либо зайти на сайт под своим именем.

Другие новости по теме:

  • Человек-паук 3: Враг в отражении / Spider-Man 3 (2007) WEB-DL [H.264 / 2160p] скачать через торрент бесплатно
  • Человек-паук 3: Враг в отражении / Spider-Man 3 (2007) BDRip [H.265 / 1080p-LQ]
  • Человек-паук 3: Враг в отражении / Spider-Man 3 (2007) UHD Blu-ray [H.265 / 2160p] [4K, HDR, 10-bit]
  • Человек-паук 3: Враг в отражении / Spider-Man 3 (2007) HDRip [H.264] [MP4|1280x534]
  • Человек-паук 3: Враг в отражении / Spider-Man 3 (2007) HDRip [H.264] [MP4|1920x800]
  • Джим Берд | Человек-Паук: Заклятый враг (2019) [FB2]
  • Человек-паук 3: Враг в отражении / Spider-Man 3 (2007) BDRip [H.265 / 1080p] [10-bit]
  • Человек-паук 3: Враг в отражении / Spider-Man 3 (2007) HDTV [H.264 / 1080i-LQ] [Open Matte]


  • Информация
    Посетители, находящиеся в группе Гости, не могут оставлять комментарии в данной новости.
    Главная страница | Регистрация | Добавить новость | Новое на сайте Copyright © 2019. bolt.mmix.club All Rights Reserved