Подписывайся на наш канал в Telegram https://t.me/torrentok и получи доступ к торрентам без ограничений!
. bolt.mmix.club
Авторские права
con...@...Показать
Вход на сайт
Логин:
Пароль:
 
Навигация по сайту
Популярные статьи

Торрент трекер | Скачать торрент | Скачать через Торрент | Скачать торрент бесплатно | Скачать торрент без регистрации Фильмы торрент скачать Хочу домой (2020) WEBRip [H.264 / 1080p-LQ] торрент скачать бесплатно

Хочу домой (2020) WEBRip [H.264 / 1080p-LQ] торрент скачать бесплатно

Фильмы торрент скачать
Хочу домой (2020) WEBRip [H.264 / 1080p-LQ]Производство: Россия
Жанр: Короткометражный, ужасы, комедия
Режиссер: Татьяна Лялина

Актеры
Александр Сирискин, Александр Феклистов, Инна Сухорецкая, Павел Артемьев

Описание

Он настолько хотел домой, что восстал из могилы и просто пошёл. Но оказалось, что дома его место уже занято.

Возраст: 16+ (зрителям, достигшим 16 лет)
Продолжительность: 00: 14: 04
Качество видео: WEBRip
Субтитры: Отсутствуют
Видео: AVC/H.264, 1920x804 (2.40: 1), ~2950 Kbps
Аудио: AC3, 2 ch, 192 Kbps - русский
Общее
Уникальный идентификатор : 214223218200020451452703658664105429515 (0xA129E41D420DD2DEA517AF54C1914A0B)
Полное имя : D: 1Хочу домой (2020).mkv
Формат : Matroska
Версия формата : Version 4
Размер файла : 317 Мбайт
Продолжительность : 14 м. 4 с.
Общий поток : 3 146 Кбит/сек
Дата кодирования : UTC 2020-08-29 05: 32: 19
Программа кодирования : mkvmerge v26.0.0 (\'In The Game\') 32-bit
Библиотека кодирования : libebml v1.3.6 + libmatroska v1.4.9/Lavf57.71.100
Видео
Идентификатор : 1
Формат : AVC
Формат/Информация : Advanced Video Codec
Профиль формата : Main@L4
Настройки формата : CABAC/1 Ref Frames
Параметр CABAC формата : Да
Параметр RefFrames формата : 1 кадр
Параметр GOP формата : M=1, N=25
Идентификатор кодека : V_MPEG4/ISO/AVC
Продолжительность : 14 м. 4 с.
Битрейт : 2 952 Кбит/сек
Ширина : 1 920 пикселей
Высота : 804 пикселя
Соотношение сторон : 2, 40: 1
Режим частоты кадров : Постоянный
Частота кадров : 24, 000 кадра/сек
Цветовое пространство : YUV
Субдискретизация насыщенности : 4: 2: 0
Битовая глубина : 8 бит
Тип развёртки : Прогрессивная
Бит/(Пиксели*Кадры) : 0.080
Размер потока : 297 Мбайт (94%)
Default : Да
Forced : Нет
Аудио
Идентификатор : 2
Формат : AC-3
Формат/Информация : Audio Coding 3
Коммерческое название : Dolby Digital
Идентификатор кодека : A_AC3
Продолжительность : 14 м. 4 с.
Вид битрейта : Постоянный
Битрейт : 192 Кбит/сек
Каналы : 2 канала
Channel layout : L R
Частота : 48, 0 КГц
Частота кадров : 31, 250 кадров/сек (1536 SPF)
Метод сжатия : С потерями
Размер потока : 19, 3 Мбайт (6%)
Service kind : Complete Main
Default : Да
Forced : Нет

Скриншоты для ознакомления



Все одноименные релизы в Клубе
Время раздачи: 24/7 (круглосуточно) (до появления первых 3-5 скачавших)
 
Уважаемый посетитель, Вы зашли на сайт как незарегистрированный пользователь. Мы рекомендуем Вам зарегистрироваться либо зайти на сайт под своим именем.

Другие новости по теме:

  • Эльчин Сафарли | Я хочу домой (2015) [FB2] скачать через торрент бесплатно
  • Эльчин Сафарли | Я хочу домой (2016) [MP3]


  • Информация
    Посетители, находящиеся в группе Гости, не могут оставлять комментарии в данной новости.
    Главная страница | Регистрация | Добавить новость | Новое на сайте Copyright © 2019. bolt.mmix.club All Rights Reserved