Подписывайся на наш канал в Telegram https://t.me/torrentok и получи доступ к торрентам без ограничений!
. bolt.mmix.club
Авторские права
con...@...Показать
Вход на сайт
Логин:
Пароль:
 
Навигация по сайту
Популярные статьи

Торрент трекер | Скачать торрент | Скачать через Торрент | Скачать торрент бесплатно | Скачать торрент без регистрации Фильмы торрент скачать Интимные места (2013) WEBRip [H.264 / 1080p-LQ] торрент скачать бесплатно

Интимные места (2013) WEBRip [H.264 / 1080p-LQ] торрент скачать бесплатно

Фильмы торрент скачать
Интимные места (2013) WEBRip [H.264 / 1080p-LQ]Производство: Россия/Focus Plus Cinema, Lemon Films Studio, Look-film, Vita Aktiva
Жанр: Драма, мелодрама
Режиссер: Наташа Меркулова, Алексей Чупов

Актеры
Юрий Колокольников, Олеся Судзиловская, Юлия Ауг, Никита Тарасов, Ксения Каталымова, Алексей Чупов, Екатерина Щеглова, Тимур Бадалбейли, Динара Янковская, Павел Артемьев

Описание

История о современных москвичах среднего класса и личных тайнах, которые они прячут за своим достатком и успехом.


Возраст: 18+ (зрителям, достигшим 18 лет. запрещено для детей)
Релиз от: Alexandr
Продолжительность: 01: 19: 23
Качество видео: WEBRip
Субтитры: Отсутствуют
Видео: AVC/H.264, 1920x804 (2.40: 1), ~4225 Kbps
Аудио: AC3, 6 ch, 384 Kbps - русский
Общее
Уникальный идентификатор : 293839972573991761243897112893992402654 (0xDD0F852C13CF5B6F33B641DDBE62FEDE)
Полное имя : D: 1Интимные места (2013).by.Alexandr.mkv
Формат : Matroska
Версия формата : Version 4
Размер файла : 2, 56 Гбайт
Продолжительность : 1 ч. 19 м.
Общий поток : 4 609 Кбит/сек
Название фильма : Интимные места. 2013.by.Alexandr
Дата кодирования : UTC 2020-08-29 10: 20: 28
Программа кодирования : mkvmerge v26.0.0 (\'In The Game\') 32-bit
Библиотека кодирования : libebml v1.3.6 + libmatroska v1.4.9/Lavf58.29.100
Видео
Идентификатор : 1
Формат : AVC
Формат/Информация : Advanced Video Codec
Профиль формата : High@L4
Настройки формата : CABAC/5 Ref Frames
Параметр CABAC формата : Да
Параметр RefFrames формата : 5 кадров
Идентификатор кодека : V_MPEG4/ISO/AVC
Продолжительность : 1 ч. 19 м.
Битрейт : 4 224 Кбит/сек
Номинальный битрейт : 5 000 Кбит/сек
Ширина : 1 920 пикселей
Высота : 804 пикселя
Соотношение сторон : 2, 40: 1
Режим частоты кадров : Постоянный
Частота кадров : 24, 000 кадра/сек
Цветовое пространство : YUV
Субдискретизация насыщенности : 4: 2: 0
Битовая глубина : 8 бит
Тип развёртки : Прогрессивная
Бит/(Пиксели*Кадры) : 0.114
Размер потока : 2, 34 Гбайт (92%)
Библиотека кодирования : x264 core 148 r2721 72d53ab
Настройки программы : cabac=1/ref=5/deblock=1: 0: 0/analyse=0x3: 0x133/me=umh/subme=10/psy=1/psy_rd=1.00: 0.00/mixed_ref=1/me_range=24/chroma_me=1/trellis=2/8x8dct=1/cqm=0/deadzone=21, 11/fast_pskip=1/chroma_qp_offset=-2/threads=25/lookahead_threads=4/sliced_threads=0/nr=0/decimate=1/interlaced=0/bluray_compat=0/constrained_intra=0/bframes=8/b_pyramid=2/b_adapt=2/b_bias=0/direct=3/weightb=1/open_gop=0/weightp=2/keyint=96/keyint_min=48/scenecut=40/intra_refresh=0/rc_lookahead=60/rc=2pass/mbtree=1/bitrate=5000/ratetol=1.0/qcomp=0.60/qpmin=0/qpmax=69/qpstep=4/cplxblur=20.0/qblur=0.5/vbv_maxrate=5500/vbv_bufsize=920/nal_hrd=none/filler=0/ip_ratio=1.40/aq=1: 1.00
Default : Да
Forced : Нет
Аудио
Идентификатор : 2
Формат : AC-3
Формат/Информация : Audio Coding 3
Коммерческое название : Dolby Digital
Идентификатор кодека : A_AC3
Продолжительность : 1 ч. 19 м.
Вид битрейта : Постоянный
Битрейт : 384 Кбит/сек
Каналы : 6 каналов
Channel layout : L R C LFE Ls Rs
Частота : 48, 0 КГц
Частота кадров : 31, 250 кадров/сек (1536 SPF)
Метод сжатия : С потерями
Задержка видео : 2 с. 917 мс.
Размер потока : 218 Мбайт (8%)
Service kind : Complete Main
Default : Да
Forced : Нет

Скриншоты для ознакомления



Все одноименные релизы в Клубе
Время раздачи: 24/7 (круглосуточно) (до появления первых 3-5 скачавших)
 
Уважаемый посетитель, Вы зашли на сайт как незарегистрированный пользователь. Мы рекомендуем Вам зарегистрироваться либо зайти на сайт под своим именем.

Другие новости по теме:

  • Интимные приключения / A laventure (2009) WEB-DL [H.264 / 720p-LQ] скачать через торрент бесплатно
  • Интимные приключения / A laventure (2009) WEB-DLRip скачать через торрент бесплатно
  • Эдуард Макаревич | Интимные тайны Советского Союза (2007) [FB2] скачать через торрент бесплатно
  • Интимные услуги / Personal Services (1987) DVDRip
  • Белый мавр, или Интимные истории о моих соседях (2012) DVDRip [H.264]
  • Bert Rhine | Интимные Женские Секреты / Intimate Secrets (2002) DVDRip


  • Информация
    Посетители, находящиеся в группе Гости, не могут оставлять комментарии в данной новости.
    Главная страница | Регистрация | Добавить новость | Новое на сайте Copyright © 2019. bolt.mmix.club All Rights Reserved