Подписывайся на наш канал в Telegram https://t.me/torrentok и получи доступ к торрентам без ограничений!
. bolt.mmix.club
Авторские права
con...@...Показать
Вход на сайт
Логин:
Пароль:
 
Навигация по сайту
Популярные статьи

Торрент трекер | Скачать торрент | Скачать через Торрент | Скачать торрент бесплатно | Скачать торрент без регистрации Фильмы торрент скачать Призрак и Тьма / The Ghost and the Darkness (1996) BDRip [H.264 / 1080p] торрент скачать бесплатно

Призрак и Тьма / The Ghost and the Darkness (1996) BDRip [H.264 / 1080p] торрент скачать бесплатно

Фильмы торрент скачать
Призрак и Тьма / The Ghost and the Darkness (1996) BDRip [H.264 / 1080p]Производство: Германия, США/Paramount Pictures, Constellation Entertainment, Douglas/Reuther Productions, Bernina Film, Mont Blanc Entertainment GmbH
Жанр: Триллер, драма, приключения
Режиссер: Стивен Хопкинс

Актеры
Майкл Дуглас, Вэл Килмер, Том Уилкинсон, Джон Кахи, Бернард Хилл, Брайан МакКарди, Эмили Мортимер, Ом Пури, Генри Селе, Курт Эгельхоф

Описание

1898 год. Лондон. Молодой строитель полковник Джон Паттерсон получает срочное задание построить мост через реку в африканской провинции Цаво. Всю жизнь мечтавший о путешествии в Африку, Паттерсон, оставив беременную жену, спешит к месту работ. На месте его ожидает целая армия рабочих.
Несмотря на разницу вероисповеданий, всех их объединяет один общий страх перед объявившимися в этих краях львами-людоедами. В первый же день пребывания Паттерсона на африканской земле лев покалечил одного из индусов. Устроив засаду, Джон застрелил льва к огромной радости всего рабочего люда. Строительство продвигалось успешно до того момента, пока вдруг снова не стали погибать рабочие.


Возраст: 16+ (зрителям, достигшим 16 лет)
Рейтинг MPAA: R (лицам до 17 лет обязательно присутствие взрослого)
Релиз от: SergeyAms
Продолжительность: 01: 50: 00
Качество видео: BDRip
Перевод: Многоголосый профессиональный, одноголосый авторский
Субтитры: Русские (полные), английские (полные)
Видео: AVC/H.264, 1920х908, ~11 Мbps
Аудио #1: AC3, 6 ch, 640 Kbps - Русский (MVO, Гемини Фильм)
Аудио #2: AC3, 6 ch, 448 Kbps - Русский (MVO, Лазер Видео)
Аудио #3: AC3, 2 ch, 192 Kbps - Русский (MVO, OPT)
Аудио #4: AC3, 6 ch, 640 Kbps - Русский (AVO, А. Гаврилов)
Аудио #5: AC3, 6 ch, 640 Kbps - Русский (АVO, Ю. Живов)
Аудио #6: AC3, 2 ch, 320 Kbps - Русский (AVO, В. Горчаков)
Аудио #7: DTS, 6 ch, 1509 Kbps - Aнглийский
Unique ID : 18315150822605536498399234150786779927 (0xDC75EA7509BEFB73BE749F3F861CB17)
Complete name : D: TempNNMПризрак и Тьма.1996.1080p.mkv
Format : Matroska
Format version : Version 4/Version 2
File size : 11.8 GiB
Duration : 1h 49mn
Overall bit rate : 15.4 Mbps
Movie name : The Ghost and the Darkness (1996)
Writing library : Lavf57.71.100
Video
ID : 1
Format : AVC
Format/Info : Advanced Video Codec
Format profile : High@L4.1
Format settings, CABAC : Yes
Format settings, ReFrames : 4 frames
Codec ID : V_MPEG4/ISO/AVC
Duration : 1h 49mn
Bit rate : 11.0 Mbps
Width : 1 920 pixels
Height : 908 pixels
Display aspect ratio : 2.115
Frame rate mode : Constant
Frame rate : 23.976 fps
Color space : YUV
Chroma subsampling : 4: 2: 0
Bit depth : 8 bits
Scan type : Progressive
Bits/(Pixel*Frame) : 0.263
Stream size : 8.22 GiB (70%)
Writing library : x264 core 157 r2935 545de2f
Encoding settings : cabac=1/ref=4/deblock=1: -2: -2/analyse=0x3: 0x113/me=umh/subme=11/psy=1/psy_rd=1.05: 0.10/mixed_ref=1/me_range=48/chroma_me=1/trellis=2/8x8dct=1/cqm=0/deadzone=21, 11/fast_pskip=0/chroma_qp_offset=-3/threads=13/lookahead_threads=2/sliced_threads=0/nr=0/decimate=0/interlaced=0/bluray_compat=0/constrained_intra=0/bframes=8/b_pyramid=2/b_adapt=2/b_bias=0/direct=1/weightb=1/open_gop=0/weightp=2/keyint=240/keyint_min=24/scenecut=40/intra_refresh=0/rc=2pass/mbtree=0/bitrate=11000/ratetol=1.0/qcomp=0.70/qpmin=3/qpmax=69/qpstep=4/cplxblur=20.0/qblur=0.5/ip_ratio=1.40/pb_ratio=1.30/aq=2: 1.00
Language : English
Default : Yes
Forced : No
Audio #1
ID : 2
Format : AC-3
Format/Info : Audio Coding 3
Mode extension : CM (complete main)
Format settings, Endianness : Big
Codec ID : A_AC3
Duration : 1h 49mn
Bit rate mode : Constant
Bit rate : 640 Kbps
Channel(s) : 6 channels
Channel positions : Front: L C R, Side: L R, LFE
Sampling rate : 48.0 KHz
Bit depth : 16 bits
Compression mode : Lossy
Stream size : 504 MiB (4%)
Title : MVO
Language : Russian
Default : Yes
Forced : No
Audio #2
ID : 3
Format : AC-3
Format/Info : Audio Coding 3
Mode extension : CM (complete main)
Format settings, Endianness : Big
Codec ID : A_AC3
Duration : 1h 49mn
Bit rate mode : Constant
Bit rate : 448 Kbps
Channel(s) : 6 channels
Channel positions : Front: L C R, Side: L R, LFE
Sampling rate : 48.0 KHz
Bit depth : 16 bits
Compression mode : Lossy
Stream size : 352 MiB (3%)
Title : DVO (Lazer)
Language : Russian
Default : No
Forced : No
Audio #3
ID : 4
Format : AC-3
Format/Info : Audio Coding 3
Mode extension : CM (complete main)
Format settings, Endianness : Big
Codec ID : A_AC3
Duration : 1h 49mn
Bit rate mode : Constant
Bit rate : 192 Kbps
Channel(s) : 2 channels
Channel positions : Front: L R
Sampling rate : 48.0 KHz
Bit depth : 16 bits
Compression mode : Lossy
Stream size : 151 MiB (1%)
Title : DVO (ORT)
Language : Russian
Default : No
Forced : No
Audio #4
ID : 5
Format : AC-3
Format/Info : Audio Coding 3
Mode extension : CM (complete main)
Format settings, Endianness : Big
Codec ID : A_AC3
Duration : 1h 49mn
Bit rate mode : Constant
Bit rate : 640 Kbps
Channel(s) : 6 channels
Channel positions : Front: L C R, Side: L R, LFE
Sampling rate : 48.0 KHz
Bit depth : 16 bits
Compression mode : Lossy
Stream size : 504 MiB (4%)
Title : AVO (Gavrilov)
Language : Russian
Default : No
Forced : No
Audio #5
ID : 6
Format : AC-3
Format/Info : Audio Coding 3
Mode extension : CM (complete main)
Format settings, Endianness : Big
Codec ID : A_AC3
Duration : 1h 49mn
Bit rate mode : Constant
Bit rate : 640 Kbps
Channel(s) : 6 channels
Channel positions : Front: L C R, Side: L R, LFE
Sampling rate : 48.0 KHz
Bit depth : 16 bits
Compression mode : Lossy
Stream size : 504 MiB (4%)
Title : AVO (Givov)
Language : Russian
Default : No
Forced : No
Audio #6
ID : 7
Format : AC-3
Format/Info : Audio Coding 3
Mode extension : CM (complete main)
Format settings, Endianness : Big
Codec ID : A_AC3
Duration : 1h 49mn
Bit rate mode : Constant
Bit rate : 320 Kbps
Channel(s) : 2 channels
Channel positions : Front: L R
Sampling rate : 48.0 KHz
Bit depth : 16 bits
Compression mode : Lossy
Stream size : 252 MiB (2%)
Title : AVO (Gorchakov)
Language : Russian
Default : No
Forced : No
Audio #7
ID : 8
Format : DTS
Format/Info : Digital Theater Systems
Mode : 16
Format settings, Endianness : Big
Codec ID : A_DTS
Duration : 1h 49mn
Bit rate mode : Constant
Bit rate : 1 509 Kbps
Channel(s) : 6 channels
Channel positions : Front: L C R, Side: L R, LFE
Sampling rate : 48.0 KHz
Bit depth : 16 bits
Compression mode : Lossy
Stream size : 1.16 GiB (10%)
Title : original
Language : English
Default : No
Forced : No
Text #1
ID : 9
Format : UTF-8
Codec ID : S_TEXT/UTF8
Codec ID/Info : UTF-8 Plain Text
Title : full
Language : Russian
Default : Yes
Forced : No
Text #2
ID : 10
Format : UTF-8
Codec ID : S_TEXT/UTF8
Codec ID/Info : UTF-8 Plain Text
Title : SDH
Language : English
Default : No
Forced : No
Menu
00: 00: 00.000 : : Chapter 01
00: 10: 15.447 : : Chapter 02
00: 19: 08.980 : : Chapter 03
00: 27: 25.477 : : Chapter 04
00: 37: 09.851 : : Chapter 05
00: 47: 32.431 : : Chapter 06
00: 56: 59.498 : : Chapter 07
01: 05: 05.650 : : Chapter 08
01: 13: 49.466 : : Chapter 09
01: 21: 58.203 : : Chapter 10
01: 30: 10.113 : : Chapter 11
01: 42: 23.301 : : Chapter 12

Скриншоты для ознакомления



Все одноименные релизы в Клубе
Время раздачи: 24/7 (до появления первых 3-5 скачавших)
 
Уважаемый посетитель, Вы зашли на сайт как незарегистрированный пользователь. Мы рекомендуем Вам зарегистрироваться либо зайти на сайт под своим именем.

Другие новости по теме:

  • Призрак и Тьма / The Ghost and the Darkness (1996) HDTVRip [H.264]скачать через торрент бесплатно
  • Призрак и Тьма / The Ghost and the Darkness (1996) WEB-DL [H.264 / 720p-LQ] скачать через торрент бесплатно
  • Призрак и Тьма / The Ghost and the Darkness (1996) BDRip [H.264 / 720p]
  • Призрак и Тьма / The Ghost and the Darkness (1996) BDRip [1080p] ATV
  • Призрак и Тьма / The Ghost and the Darkness (1996) BDRemux [H.264 / 1080p]


  • Информация
    Посетители, находящиеся в группе Гости, не могут оставлять комментарии в данной новости.
    Главная страница | Регистрация | Добавить новость | Новое на сайте Copyright © 2019. bolt.mmix.club All Rights Reserved